  0
SECTION
  2
HEADER
  9
$ACADVER
  1
AC1024
  9
$ACADMAINTVER
 70
     6
  9
$DWGCODEPAGE
  3
ANSI_1250
  9
$LASTSAVEDBY
  1
Petr
  9
$INSBASE
 10
0.0
 20
0.0
 30
0.0
  9
$EXTMIN
 10
1106.442860552
 20
581.1384277340001
 30
0.0
  9
$EXTMAX
 10
3291.442871094
 20
1750.107299805
 30
0.0
  9
$LIMMIN
 10
0.0
 20
0.0
  9
$LIMMAX
 10
0.0
 20
0.0
  9
$ORTHOMODE
 70
     0
  9
$REGENMODE
 70
     1
  9
$FILLMODE
 70
     1
  9
$QTEXTMODE
 70
     0
  9
$MIRRTEXT
 70
     1
  9
$LTSCALE
 40
1.0
  9
$ATTMODE
 70
     1
  9
$TEXTSIZE
 40
0.0
  9
$TRACEWID
 40
0.05
  9
$TEXTSTYLE
  7
Standard
  9
$CLAYER
  8
1
  9
$CELTYPE
  6
Continuous
  9
$CECOLOR
 62
   256
  9
$CELTSCALE
 40
1.0
  9
$DISPSILH
 70
     0
  9
$DIMSCALE
 40
1.0
  9
$DIMASZ
 40
30.0
  9
$DIMEXO
 40
4.0
  9
$DIMDLI
 40
0.38
  9
$DIMRND
 40
0.0
  9
$DIMDLE
 40
0.0
  9
$DIMEXE
 40
4.0
  9
$DIMTP
 40
0.0
  9
$DIMTM
 40
0.0
  9
$DIMTXT
 40
30.0
  9
$DIMCEN
 40
0.09
  9
$DIMTSZ
 40
0.0
  9
$DIMTOL
 70
     0
  9
$DIMLIM
 70
     0
  9
$DIMTIH
 70
     0
  9
$DIMTOH
 70
     0
  9
$DIMSE1
 70
     0
  9
$DIMSE2
 70
     0
  9
$DIMTAD
 70
     1
  9
$DIMZIN
 70
     0
  9
$DIMBLK
  1

  9
$DIMASO
 70
     1
  9
$DIMSHO
 70
     1
  9
$DIMPOST
  1

  9
$DIMAPOST
  1

  9
$DIMALT
 70
     0
  9
$DIMALTD
 70
     2
  9
$DIMALTF
 40
25.4
  9
$DIMLFAC
 40
1.0
  9
$DIMTOFL
 70
     1
  9
$DIMTVP
 40
0.0
  9
$DIMTIX
 70
     0
  9
$DIMSOXD
 70
     0
  9
$DIMSAH
 70
     0
  9
$DIMBLK1
  1

  9
$DIMBLK2
  1

  9
$DIMSTYLE
  2
Standard
  9
$DIMCLRD
 70
     7
  9
$DIMCLRE
 70
     7
  9
$DIMCLRT
 70
    50
  9
$DIMTFAC
 40
1.0
  9
$DIMGAP
 40
0.09
  9
$DIMJUST
 70
     0
  9
$DIMSD1
 70
     0
  9
$DIMSD2
 70
     0
  9
$DIMTOLJ
 70
     1
  9
$DIMTZIN
 70
     0
  9
$DIMALTZ
 70
     0
  9
$DIMALTTZ
 70
     0
  9
$DIMUPT
 70
     0
  9
$DIMDEC
 70
     0
  9
$DIMTDEC
 70
     4
  9
$DIMALTU
 70
     2
  9
$DIMALTTD
 70
     2
  9
$DIMTXSTY
  7
Standard
  9
$DIMAUNIT
 70
     0
  9
$DIMADEC
 70
     0
  9
$DIMALTRND
 40
0.0
  9
$DIMAZIN
 70
     0
  9
$DIMDSEP
 70
     0
  9
$DIMATFIT
 70
     1
  9
$DIMFRAC
 70
     0
  9
$DIMLDRBLK
  1

  9
$DIMLUNIT
 70
     2
  9
$DIMLWD
 70
     0
  9
$DIMLWE
 70
     0
  9
$DIMTMOVE
 70
     0
  9
$DIMFXL
 40
1.0
  9
$DIMFXLON
 70
     0
  9
$DIMJOGANG
 40
0.7853981633974483
  9
$DIMTFILL
 70
     0
  9
$DIMTFILLCLR
 70
     0
  9
$DIMARCSYM
 70
     0
  9
$DIMLTYPE
  6

  9
$DIMLTEX1
  6

  9
$DIMLTEX2
  6

  9
$DIMTXTDIRECTION
 70
     0
  9
$LUNITS
 70
     2
  9
$LUPREC
 70
     0
  9
$SKETCHINC
 40
0.1
  9
$FILLETRAD
 40
0.0
  9
$AUNITS
 70
     0
  9
$AUPREC
 70
     2
  9
$MENU
  1
acad
  9
$ELEVATION
 40
0.0
  9
$PELEVATION
 40
0.0
  9
$THICKNESS
 40
0.0
  9
$LIMCHECK
 70
     0
  9
$CHAMFERA
 40
0.0
  9
$CHAMFERB
 40
0.0
  9
$CHAMFERC
 40
0.0
  9
$CHAMFERD
 40
0.0
  9
$SKPOLY
 70
     0
  9
$TDCREATE
 40
2455124.428493183
  9
$TDUCREATE
 40
2455124.345159850
  9
$TDUPDATE
 40
2455467.437165197
  9
$TDUUPDATE
 40
2455467.353831863
  9
$TDINDWG
 40
0.0010839931
  9
$TDUSRTIMER
 40
0.0010839236
  9
$USRTIMER
 70
     1
  9
$ANGBASE
 50
0.0
  9
$ANGDIR
 70
     0
  9
$PDMODE
 70
     2
  9
$PDSIZE
 40
-1.0
  9
$PLINEWID
 40
0.0
  9
$SPLFRAME
 70
     0
  9
$SPLINETYPE
 70
     6
  9
$SPLINESEGS
 70
     8
  9
$HANDSEED
  5
515
  9
$SURFTAB1
 70
     6
  9
$SURFTAB2
 70
     6
  9
$SURFTYPE
 70
     6
  9
$SURFU
 70
     6
  9
$SURFV
 70
     6
  9
$UCSBASE
  2

  9
$UCSNAME
  2

  9
$UCSORG
 10
0.0
 20
0.0
 30
0.0
  9
$UCSXDIR
 10
1.0
 20
0.0
 30
0.0
  9
$UCSYDIR
 10
0.0
 20
1.0
 30
0.0
  9
$UCSORTHOREF
  2

  9
$UCSORTHOVIEW
 70
     0
  9
$UCSORGTOP
 10
0.0
 20
0.0
 30
0.0
  9
$UCSORGBOTTOM
 10
0.0
 20
0.0
 30
0.0
  9
$UCSORGLEFT
 10
0.0
 20
0.0
 30
0.0
  9
$UCSORGRIGHT
 10
0.0
 20
0.0
 30
0.0
  9
$UCSORGFRONT
 10
0.0
 20
0.0
 30
0.0
  9
$UCSORGBACK
 10
0.0
 20
0.0
 30
0.0
  9
$PUCSBASE
  2

  9
$PUCSNAME
  2

  9
$PUCSORG
 10
0.0
 20
0.0
 30
0.0
  9
$PUCSXDIR
 10
1.0
 20
0.0
 30
0.0
  9
$PUCSYDIR
 10
0.0
 20
1.0
 30
0.0
  9
$PUCSORTHOREF
  2

  9
$PUCSORTHOVIEW
 70
     0
  9
$PUCSORGTOP
 10
0.0
 20
0.0
 30
0.0
  9
$PUCSORGBOTTOM
 10
0.0
 20
0.0
 30
0.0
  9
$PUCSORGLEFT
 10
0.0
 20
0.0
 30
0.0
  9
$PUCSORGRIGHT
 10
0.0
 20
0.0
 30
0.0
  9
$PUCSORGFRONT
 10
0.0
 20
0.0
 30
0.0
  9
$PUCSORGBACK
 10
0.0
 20
0.0
 30
0.0
  9
$USERI1
 70
     0
  9
$USERI2
 70
     0
  9
$USERI3
 70
     0
  9
$USERI4
 70
     0
  9
$USERI5
 70
     0
  9
$USERR1
 40
0.0
  9
$USERR2
 40
0.0
  9
$USERR3
 40
0.0
  9
$USERR4
 40
0.0
  9
$USERR5
 40
0.0
  9
$WORLDVIEW
 70
     1
  9
$SHADEDGE
 70
     3
  9
$SHADEDIF
 70
    70
  9
$TILEMODE
 70
     1
  9
$MAXACTVP
 70
    16
  9
$PINSBASE
 10
0.0
 20
0.0
 30
0.0
  9
$PLIMCHECK
 70
     0
  9
$PEXTMIN
 10
1.000000000000000E+20
 20
1.000000000000000E+20
 30
1.000000000000000E+20
  9
$PEXTMAX
 10
-1.000000000000000E+20
 20
-1.000000000000000E+20
 30
-1.000000000000000E+20
  9
$PLIMMIN
 10
0.0
 20
0.0
  9
$PLIMMAX
 10
12.0
 20
9.0
  9
$UNITMODE
 70
     0
  9
$VISRETAIN
 70
     0
  9
$PLINEGEN
 70
     1
  9
$PSLTSCALE
 70
     0
  9
$TREEDEPTH
 70
  3020
  9
$CMLSTYLE
  2
Standard
  9
$CMLJUST
 70
     0
  9
$CMLSCALE
 40
1.0
  9
$PROXYGRAPHICS
 70
     0
  9
$MEASUREMENT
 70
     1
  9
$CELWEIGHT
370
     0
  9
$ENDCAPS
280
     0
  9
$JOINSTYLE
280
     0
  9
$LWDISPLAY
290
     0
  9
$INSUNITS
 70
     0
  9
$HYPERLINKBASE
  1

  9
$STYLESHEET
  1

  9
$XEDIT
290
     1
  9
$CEPSNTYPE
380
     0
  9
$PSTYLEMODE
290
     1
  9
$FINGERPRINTGUID
  2

  9
$VERSIONGUID
  2
{0D777227-0A4C-4387-A798-5436A2C353F8}
  9
$EXTNAMES
290
     1
  9
$PSVPSCALE
 40
0.0
  9
$OLESTARTUP
290
     0
  9
$SORTENTS
280
   127
  9
$INDEXCTL
280
     0
  9
$HIDETEXT
280
     0
  9
$XCLIPFRAME
280
     0
  9
$HALOGAP
280
     0
  9
$OBSCOLOR
 70
   257
  9
$OBSLTYPE
280
     0
  9
$INTERSECTIONDISPLAY
280
     0
  9
$INTERSECTIONCOLOR
 70
   257
  9
$DIMASSOC
280
     1
  9
$PROJECTNAME
  1

  9
$CAMERADISPLAY
290
     0
  9
$LENSLENGTH
 40
50.0
  9
$CAMERAHEIGHT
 40
0.0
  9
$STEPSPERSEC
 40
2.0
  9
$STEPSIZE
 40
6.0
  9
$3DDWFPREC
 40
2.0
  9
$PSOLWIDTH
 40
0.25
  9
$PSOLHEIGHT
 40
4.0
  9
$LOFTANG1
 40
1.570796326794896
  9
$LOFTANG2
 40
1.570796326794896
  9
$LOFTMAG1
 40
0.0
  9
$LOFTMAG2
 40
0.0
  9
$LOFTPARAM
 70
     7
  9
$LOFTNORMALS
280
     1
  9
$LATITUDE
 40
37.795
  9
$LONGITUDE
 40
-122.394
  9
$NORTHDIRECTION
 40
0.0
  9
$TIMEZONE
 70
 -8000
  9
$LIGHTGLYPHDISPLAY
280
     1
  9
$TILEMODELIGHTSYNCH
280
     1
  9
$CMATERIAL
347
459
  9
$SOLIDHIST
280
     1
  9
$SHOWHIST
280
     1
  9
$DWFFRAME
280
     2
  9
$DGNFRAME
280
     0
  9
$REALWORLDSCALE
290
     1
  9
$INTERFERECOLOR
 62
     1
  9
$INTERFEREOBJVS
345
47B
  9
$INTERFEREVPVS
346
478
  9
$CSHADOW
280
     0
  9
$SHADOWPLANELOCATION
 40
0.0
  0
ENDSEC
  0
SECTION
  2
CLASSES
  0
CLASS
  1
IMAGE
  2
AcDbRasterImage
  3
ISM
 90
      127
 91
        0
280
     0
281
     1
  0
CLASS
  1
DICTIONARYVAR
  2
AcDbDictionaryVar
  3
ObjectDBX Classes
 90
        0
 91
        7
280
     0
281
     0
  0
CLASS
  1
RASTERVARIABLES
  2
AcDbRasterVariables
  3
ISM
 90
        0
 91
        0
280
     0
281
     0
  0
CLASS
  1
IMAGEDEF
  2
AcDbRasterImageDef
  3
ISM
 90
        0
 91
        0
280
     0
281
     0
  0
CLASS
  1
IMAGEDEF_REACTOR
  2
AcDbRasterImageDefReactor
  3
ISM
 90
        1
 91
        0
280
     0
281
     0
  0
CLASS
  1
IDBUFFER
  2
AcDbIdBuffer
  3
ObjectDBX Classes
 90
        0
 91
        0
280
     0
281
     0
  0
CLASS
  1
SPATIAL_FILTER
  2
AcDbSpatialFilter
  3
ObjectDBX Classes
 90
        0
 91
        0
280
     0
281
     0
  0
CLASS
  1
SORTENTSTABLE
  2
AcDbSortentsTable
  3
ObjectDBX Classes
 90
        0
 91
        0
280
     0
281
     0
  0
CLASS
  1
LAYER_INDEX
  2
AcDbLayerIndex
  3
ObjectDBX Classes
 90
        0
 91
        0
280
     0
281
     0
  0
CLASS
  1
SPATIAL_INDEX
  2
AcDbSpatialIndex
  3
ObjectDBX Classes
 90
        0
 91
        0
280
     0
281
     0
  0
CLASS
  1
OBJECT_PTR
  2
CAseDLPNTableRecord
  3
"ASE-LPNTableRecord"
 90
        1
 91
        0
280
     0
281
     0
  0
CLASS
  1
PLOTSETTINGS
  2
AcDbPlotSettings
  3
ObjectDBX Classes
 90
        0
 91
        0
280
     0
281
     0
  0
CLASS
  1
ACDBDICTIONARYWDFLT
  2
AcDbDictionaryWithDefault
  3
ObjectDBX Classes
 90
        0
 91
        1
280
     0
281
     0
  0
CLASS
  1
MATERIAL
  2
AcDbMaterial
  3
ObjectDBX Classes
 90
     1153
 91
        3
280
     0
281
     0
  0
CLASS
  1
VISUALSTYLE
  2
AcDbVisualStyle
  3
ObjectDBX Classes
 90
     4095
 91
       19
280
     0
281
     0
  0
CLASS
  1
TABLESTYLE
  2
AcDbTableStyle
  3
ObjectDBX Classes
 90
     4095
 91
        1
280
     0
281
     0
  0
CLASS
  1
SCALE
  2
AcDbScale
  3
ObjectDBX Classes
 90
     1153
 91
       17
280
     0
281
     0
  0
CLASS
  1
MLEADERSTYLE
  2
AcDbMLeaderStyle
  3
ACDB_MLEADERSTYLE_CLASS
 90
     4095
 91
        1
280
     0
281
     0
  0
CLASS
  1
CELLSTYLEMAP
  2
AcDbCellStyleMap
  3
ObjectDBX Classes
 90
     1152
 91
        2
280
     0
281
     0
  0
ENDSEC
  0
SECTION
  2
TABLES
  0
TABLE
  2
VPORT
  5
7
330
0
100
AcDbSymbolTable
 70
     1
  0
VPORT
  5
15
330
7
100
AcDbSymbolTableRecord
100
AcDbViewportTableRecord
  2
*ACTIVE
 70
     0
 10
0.0
 20
0.0
 11
1.0
 21
1.0
 12
2413.923902519646
 22
940.8704407383222
 13
0.0
 23
0.0
 14
1.0
 24
1.0
 15
0.0
 25
0.0
 16
0.0
 26
0.0
 36
1.0
 17
0.0
 27
0.0
 37
0.0
 40
2229.511667512997
 41
2.407129455909943
 42
50.0
 43
0.0
 44
0.0
 50
0.0
 51
0.0
 71
     0
 72
   100
 73
     1
 74
     1
 75
     0
 76
     0
 77
     0
 78
     0
281
     0
 65
     0
110
0.0
120
0.0
130
0.0
111
1.0
121
0.0
131
0.0
112
0.0
122
1.0
132
0.0
 79
     0
146
0.0
348
477
 60
     3
 61
     5
292
     1
282
     1
141
0.0
142
0.0
 63
   250
421
  3355443
  0
ENDTAB
  0
TABLE
  2
LTYPE
  5
4
330
0
100
AcDbSymbolTable
 70
     4
  0
LTYPE
  5
11
330
4
100
AcDbSymbolTableRecord
100
AcDbLinetypeTableRecord
  2
ByBlock
 70
     0
  3

 72
    65
 73
     0
 40
0.0
  0
LTYPE
  5
12
330
4
100
AcDbSymbolTableRecord
100
AcDbLinetypeTableRecord
  2
ByLayer
 70
     0
  3

 72
    65
 73
     0
 40
0.0
  0
LTYPE
  5
13
330
4
100
AcDbSymbolTableRecord
100
AcDbLinetypeTableRecord
  2
Continuous
 70
     0
  3
Solid line
 72
    65
 73
     0
 40
0.0
  0
LTYPE
  5
55
330
4
100
AcDbSymbolTableRecord
100
AcDbLinetypeTableRecord
  2
SOLID
 70
     0
  3
Solid line
 72
    65
 73
     0
 40
0.0
  0
LTYPE
  5
91
330
4
100
AcDbSymbolTableRecord
100
AcDbLinetypeTableRecord
  2
CENTER
 70
     0
  3
Center ____ _ ____ _ ____ _ ____ _ ____ _ ____
 72
    65
 73
     4
 40
8.0
 49
4.5
 74
     0
 49
-1.5
 74
     0
 49
0.5
 74
     0
 49
-1.5
 74
     0
  0
LTYPE
  5
D9
330
4
100
AcDbSymbolTableRecord
100
AcDbLinetypeTableRecord
  2
L_DASH
 70
     0
  3
L_dash ____  ____  ____  ____  ____  ____
 72
    65
 73
     2
 40
8.0
 49
6.0
 74
     0
 49
-2.0
 74
     0
  0
ENDTAB
  0
TABLE
  2
LAYER
  5
2
330
0
100
AcDbSymbolTable
 70
    51
  0
LAYER
  5
14
102
{ACAD_XDICTIONARY
360
4AD
102
}
330
2
100
AcDbSymbolTableRecord
100
AcDbLayerTableRecord
  2
0
 70
     0
 62
     7
  6
Continuous
370
    -3
390
1D
347
469
  0
LAYER
  5
23
102
{ACAD_XDICTIONARY
360
4AF
102
}
330
2
100
AcDbSymbolTableRecord
100
AcDbLayerTableRecord
  2
1
 70
     0
 62
     7
  6
Continuous
370
    -3
390
1F
347
469
  0
LAYER
  5
24
102
{ACAD_XDICTIONARY
360
4B1
102
}
330
2
100
AcDbSymbolTableRecord
100
AcDbLayerTableRecord
  2
2
 70
     0
 62
     7
  6
Continuous
370
    -3
390
1F
347
469
  0
LAYER
  5
25
102
{ACAD_XDICTIONARY
360
4B3
102
}
330
2
100
AcDbSymbolTableRecord
100
AcDbLayerTableRecord
  2
3
 70
     0
 62
     7
  6
Continuous
370
    -3
390
1F
347
469
  0
LAYER
  5
26
102
{ACAD_XDICTIONARY
360
4B5
102
}
330
2
100
AcDbSymbolTableRecord
100
AcDbLayerTableRecord
  2
4
 70
     0
 62
     7
  6
Continuous
370
    -3
390
1F
347
469
  0
LAYER
  5
27
102
{ACAD_XDICTIONARY
360
4B7
102
}
330
2
100
AcDbSymbolTableRecord
100
AcDbLayerTableRecord
  2
5
 70
     0
 62
     7
  6
Continuous
370
    -3
390
1F
347
469
  0
LAYER
  5
28
102
{ACAD_XDICTIONARY
360
4B9
102
}
330
2
100
AcDbSymbolTableRecord
100
AcDbLayerTableRecord
  2
6
 70
     0
 62
     7
  6
Continuous
370
    -3
390
1F
347
469
  0
LAYER
  5
29
102
{ACAD_XDICTIONARY
360
4BB
102
}
330
2
100
AcDbSymbolTableRecord
100
AcDbLayerTableRecord
  2
7
 70
     0
 62
     7
  6
Continuous
370
    -3
390
1F
347
469
  0
LAYER
  5
2A
102
{ACAD_XDICTIONARY
360
4BD
102
}
330
2
100
AcDbSymbolTableRecord
100
AcDbLayerTableRecord
  2
8
 70
     0
 62
     7
  6
Continuous
370
    -3
390
1F
347
469
  0
LAYER
  5
2B
102
{ACAD_XDICTIONARY
360
4BF
102
}
330
2
100
AcDbSymbolTableRecord
100
AcDbLayerTableRecord
  2
9
 70
     0
 62
     7
  6
Continuous
370
    -3
390
1F
347
469
  0
LAYER
  5
2C
102
{ACAD_XDICTIONARY
360
4C1
102
}
330
2
100
AcDbSymbolTableRecord
100
AcDbLayerTableRecord
  2
10
 70
     0
 62
     7
  6
Continuous
370
    -3
390
1F
347
469
  0
LAYER
  5
2D
102
{ACAD_XDICTIONARY
360
4C3
102
}
330
2
100
AcDbSymbolTableRecord
100
AcDbLayerTableRecord
  2
11
 70
     0
 62
     7
  6
Continuous
370
    -3
390
1F
347
469
  0
LAYER
  5
2E
102
{ACAD_XDICTIONARY
360
4C5
102
}
330
2
100
AcDbSymbolTableRecord
100
AcDbLayerTableRecord
  2
12
 70
     0
 62
     7
  6
Continuous
370
    -3
390
1F
347
469
  0
LAYER
  5
2F
102
{ACAD_XDICTIONARY
360
4C7
102
}
330
2
100
AcDbSymbolTableRecord
100
AcDbLayerTableRecord
  2
13
 70
     0
 62
     7
  6
Continuous
370
    -3
390
1F
347
469
  0
LAYER
  5
30
102
{ACAD_XDICTIONARY
360
4C9
102
}
330
2
100
AcDbSymbolTableRecord
100
AcDbLayerTableRecord
  2
14
 70
     0
 62
     7
  6
Continuous
370
    -3
390
1F
347
469
  0
LAYER
  5
31
102
{ACAD_XDICTIONARY
360
4CB
102
}
330
2
100
AcDbSymbolTableRecord
100
AcDbLayerTableRecord
  2
15
 70
     0
 62
     7
  6
Continuous
370
    -3
390
1F
347
469
  0
LAYER
  5
32
102
{ACAD_XDICTIONARY
360
4CD
102
}
330
2
100
AcDbSymbolTableRecord
100
AcDbLayerTableRecord
  2
16
 70
     0
 62
     7
  6
Continuous
370
    -3
390
1F
347
469
  0
LAYER
  5
33
102
{ACAD_XDICTIONARY
360
4CF
102
}
330
2
100
AcDbSymbolTableRecord
100
AcDbLayerTableRecord
  2
17
 70
     0
 62
     7
  6
Continuous
370
    -3
390
1F
347
469
  0
LAYER
  5
34
102
{ACAD_XDICTIONARY
360
4D1
102
}
330
2
100
AcDbSymbolTableRecord
100
AcDbLayerTableRecord
  2
18
 70
     0
 62
     7
  6
Continuous
370
    -3
390
1F
347
469
  0
LAYER
  5
35
102
{ACAD_XDICTIONARY
360
4D3
102
}
330
2
100
AcDbSymbolTableRecord
100
AcDbLayerTableRecord
  2
19
 70
     0
 62
     7
  6
Continuous
370
    -3
390
1F
347
469
  0
LAYER
  5
36
102
{ACAD_XDICTIONARY
360
4D5
102
}
330
2
100
AcDbSymbolTableRecord
100
AcDbLayerTableRecord
  2
20
 70
     0
 62
     7
  6
Continuous
370
    -3
390
1F
347
469
  0
LAYER
  5
37
102
{ACAD_XDICTIONARY
360
4D7
102
}
330
2
100
AcDbSymbolTableRecord
100
AcDbLayerTableRecord
  2
21
 70
     0
 62
     7
  6
Continuous
370
    -3
390
1F
347
469
  0
LAYER
  5
38
102
{ACAD_XDICTIONARY
360
4D9
102
}
330
2
100
AcDbSymbolTableRecord
100
AcDbLayerTableRecord
  2
22
 70
     0
 62
     7
  6
Continuous
370
    -3
390
1F
347
469
  0
LAYER
  5
39
102
{ACAD_XDICTIONARY
360
4DB
102
}
330
2
100
AcDbSymbolTableRecord
100
AcDbLayerTableRecord
  2
23
 70
     0
 62
     7
  6
Continuous
370
    -3
390
1F
347
469
  0
LAYER
  5
3A
102
{ACAD_XDICTIONARY
360
4DD
102
}
330
2
100
AcDbSymbolTableRecord
100
AcDbLayerTableRecord
  2
24
 70
     0
 62
     7
  6
Continuous
370
    -3
390
1F
347
469
  0
LAYER
  5
3B
102
{ACAD_XDICTIONARY
360
4DF
102
}
330
2
100
AcDbSymbolTableRecord
100
AcDbLayerTableRecord
  2
25
 70
     0
 62
     7
  6
Continuous
370
    -3
390
1F
347
469
  0
LAYER
  5
3C
102
{ACAD_XDICTIONARY
360
4E1
102
}
330
2
100
AcDbSymbolTableRecord
100
AcDbLayerTableRecord
  2
26
 70
     0
 62
     7
  6
Continuous
370
    -3
390
1F
347
469
  0
LAYER
  5
3D
102
{ACAD_XDICTIONARY
360
4E3
102
}
330
2
100
AcDbSymbolTableRecord
100
AcDbLayerTableRecord
  2
27
 70
     0
 62
     7
  6
Continuous
370
    -3
390
1F
347
469
  0
LAYER
  5
3E
102
{ACAD_XDICTIONARY
360
4E5
102
}
330
2
100
AcDbSymbolTableRecord
100
AcDbLayerTableRecord
  2
28
 70
     0
 62
     7
  6
Continuous
370
    -3
390
1F
347
469
  0
LAYER
  5
3F
102
{ACAD_XDICTIONARY
360
4E7
102
}
330
2
100
AcDbSymbolTableRecord
100
AcDbLayerTableRecord
  2
29
 70
     0
 62
     7
  6
Continuous
370
    -3
390
1F
347
469
  0
LAYER
  5
40
102
{ACAD_XDICTIONARY
360
4E9
102
}
330
2
100
AcDbSymbolTableRecord
100
AcDbLayerTableRecord
  2
30
 70
     0
 62
     7
  6
Continuous
370
    -3
390
1F
347
469
  0
LAYER
  5
41
102
{ACAD_XDICTIONARY
360
4EB
102
}
330
2
100
AcDbSymbolTableRecord
100
AcDbLayerTableRecord
  2
31
 70
     0
 62
     7
  6
Continuous
370
    -3
390
1F
347
469
  0
LAYER
  5
42
102
{ACAD_XDICTIONARY
360
4ED
102
}
330
2
100
AcDbSymbolTableRecord
100
AcDbLayerTableRecord
  2
32
 70
     0
 62
     7
  6
Continuous
370
    -3
390
1F
347
469
  0
LAYER
  5
43
102
{ACAD_XDICTIONARY
360
4EF
102
}
330
2
100
AcDbSymbolTableRecord
100
AcDbLayerTableRecord
  2
33
 70
     0
 62
     7
  6
Continuous
370
    -3
390
1F
347
469
  0
LAYER
  5
44
102
{ACAD_XDICTIONARY
360
4F1
102
}
330
2
100
AcDbSymbolTableRecord
100
AcDbLayerTableRecord
  2
34
 70
     0
 62
     7
  6
Continuous
370
    -3
390
1F
347
469
  0
LAYER
  5
45
102
{ACAD_XDICTIONARY
360
4F3
102
}
330
2
100
AcDbSymbolTableRecord
100
AcDbLayerTableRecord
  2
35
 70
     0
 62
     7
  6
Continuous
370
    -3
390
1F
347
469
  0
LAYER
  5
46
102
{ACAD_XDICTIONARY
360
4F5
102
}
330
2
100
AcDbSymbolTableRecord
100
AcDbLayerTableRecord
  2
36
 70
     0
 62
     7
  6
Continuous
370
    -3
390
1F
347
469
  0
LAYER
  5
47
102
{ACAD_XDICTIONARY
360
4F7
102
}
330
2
100
AcDbSymbolTableRecord
100
AcDbLayerTableRecord
  2
37
 70
     0
 62
     7
  6
Continuous
370
    -3
390
1F
347
469
  0
LAYER
  5
48
102
{ACAD_XDICTIONARY
360
4F9
102
}
330
2
100
AcDbSymbolTableRecord
100
AcDbLayerTableRecord
  2
38
 70
     0
 62
     7
  6
Continuous
370
    -3
390
1F
347
469
  0
LAYER
  5
49
102
{ACAD_XDICTIONARY
360
4FB
102
}
330
2
100
AcDbSymbolTableRecord
100
AcDbLayerTableRecord
  2
39
 70
     0
 62
     7
  6
Continuous
370
    -3
390
1F
347
469
  0
LAYER
  5
4A
102
{ACAD_XDICTIONARY
360
4FD
102
}
330
2
100
AcDbSymbolTableRecord
100
AcDbLayerTableRecord
  2
40
 70
     0
 62
     7
  6
Continuous
370
    -3
390
1F
347
469
  0
LAYER
  5
4B
102
{ACAD_XDICTIONARY
360
4FF
102
}
330
2
100
AcDbSymbolTableRecord
100
AcDbLayerTableRecord
  2
41
 70
     0
 62
     7
  6
Continuous
370
    -3
390
1F
347
469
  0
LAYER
  5
4C
102
{ACAD_XDICTIONARY
360
501
102
}
330
2
100
AcDbSymbolTableRecord
100
AcDbLayerTableRecord
  2
42
 70
     0
 62
     7
  6
Continuous
370
    -3
390
1F
347
469
  0
LAYER
  5
4D
102
{ACAD_XDICTIONARY
360
503
102
}
330
2
100
AcDbSymbolTableRecord
100
AcDbLayerTableRecord
  2
43
 70
     0
 62
     7
  6
Continuous
370
    -3
390
1F
347
469
  0
LAYER
  5
4E
102
{ACAD_XDICTIONARY
360
505
102
}
330
2
100
AcDbSymbolTableRecord
100
AcDbLayerTableRecord
  2
44
 70
     0
 62
     7
  6
Continuous
370
    -3
390
1F
347
469
  0
LAYER
  5
4F
102
{ACAD_XDICTIONARY
360
507
102
}
330
2
100
AcDbSymbolTableRecord
100
AcDbLayerTableRecord
  2
45
 70
     0
 62
     7
  6
Continuous
370
    -3
390
1F
347
469
  0
LAYER
  5
50
102
{ACAD_XDICTIONARY
360
509
102
}
330
2
100
AcDbSymbolTableRecord
100
AcDbLayerTableRecord
  2
46
 70
     0
 62
     7
  6
Continuous
370
    -3
390
1F
347
469
  0
LAYER
  5
51
102
{ACAD_XDICTIONARY
360
50B
102
}
330
2
100
AcDbSymbolTableRecord
100
AcDbLayerTableRecord
  2
47
 70
     0
 62
     7
  6
Continuous
370
    -3
390
1F
347
469
  0
LAYER
  5
52
102
{ACAD_XDICTIONARY
360
50D
102
}
330
2
100
AcDbSymbolTableRecord
100
AcDbLayerTableRecord
  2
48
 70
     0
 62
     7
  6
Continuous
370
    -3
390
1F
347
469
  0
LAYER
  5
53
102
{ACAD_XDICTIONARY
360
50F
102
}
330
2
100
AcDbSymbolTableRecord
100
AcDbLayerTableRecord
  2
49
 70
     0
 62
     7
  6
Continuous
370
    -3
390
1F
347
469
  0
LAYER
  5
54
102
{ACAD_XDICTIONARY
360
511
102
}
330
2
100
AcDbSymbolTableRecord
100
AcDbLayerTableRecord
  2
50
 70
     0
 62
     7
  6
Continuous
370
    -3
390
1F
347
469
  0
ENDTAB
  0
TABLE
  2
STYLE
  5
3
330
0
100
AcDbSymbolTable
 70
     1
  0
STYLE
  5
17
330
3
100
AcDbSymbolTableRecord
100
AcDbTextStyleTableRecord
  2
Standard
 70
     0
 40
0.0
 41
1.0
 50
0.0
 71
     0
 42
0.0
  3
txt
  4

  0
ENDTAB
  0
TABLE
  2
VIEW
  5
5
330
0
100
AcDbSymbolTable
 70
     0
  0
ENDTAB
  0
TABLE
  2
UCS
  5
6
330
0
100
AcDbSymbolTable
 70
     0
  0
ENDTAB
  0
TABLE
  2
APPID
  5
8
330
0
100
AcDbSymbolTable
 70
     2
  0
APPID
  5
16
330
8
100
AcDbSymbolTableRecord
100
AcDbRegAppTableRecord
  2
ACAD
 70
     0
  0
APPID
  5
499
330
8
100
AcDbSymbolTableRecord
100
AcDbRegAppTableRecord
  2
ACAD_MLEADERVER
 70
     0
  0
ENDTAB
  0
TABLE
  2
DIMSTYLE
  5
9
330
0
100
AcDbSymbolTable
 70
    17
100
AcDbDimStyleTable
 71
     0
  0
DIMSTYLE
105
18
330
9
100
AcDbSymbolTableRecord
100
AcDbDimStyleTableRecord
  2
Standard
 70
     0
 41
30.0
 42
4.0
 44
4.0
 73
     0
 74
     0
 77
     1
140
30.0
172
     1
176
     7
177
     7
178
    50
340
17
  0
DIMSTYLE
105
65
102
{ACAD_REACTORS
330
66
102
}
330
9
100
AcDbSymbolTableRecord
100
AcDbDimStyleTableRecord
  2
2
 70
     0
 41
30.0
 42
4.0
 44
4.0
 73
     0
 74
     0
 77
     1
140
30.0
172
     1
176
     3
177
     3
178
     3
271
     0
340
17
  0
DIMSTYLE
105
7D
102
{ACAD_REACTORS
330
7E
102
}
330
9
100
AcDbSymbolTableRecord
100
AcDbDimStyleTableRecord
  2
3
 70
     0
 41
30.0
 42
4.0
 44
4.0
 73
     0
 74
     0
 77
     1
140
30.0
172
     1
176
     3
177
     3
178
     3
271
     0
340
17
  0
DIMSTYLE
105
8F
102
{ACAD_REACTORS
330
90
102
}
330
9
100
AcDbSymbolTableRecord
100
AcDbDimStyleTableRecord
  2
4
 70
     0
 41
30.0
 42
4.0
 44
4.0
 73
     0
 74
     0
 77
     1
140
30.0
172
     1
176
     3
177
     3
178
     3
271
     0
340
17
  0
DIMSTYLE
105
A3
102
{ACAD_REACTORS
330
A4
102
}
330
9
100
AcDbSymbolTableRecord
100
AcDbDimStyleTableRecord
  2
5
 70
     0
 41
30.0
 42
4.0
 44
4.0
 73
     0
 74
     0
 77
     1
140
30.0
172
     1
176
     3
177
     3
178
     3
271
     0
340
17
  0
DIMSTYLE
105
B3
102
{ACAD_REACTORS
330
B4
102
}
330
9
100
AcDbSymbolTableRecord
100
AcDbDimStyleTableRecord
  2
6
 70
     0
 41
30.0
 42
4.0
 44
4.0
 73
     0
 74
     0
 77
     1
140
30.0
172
     1
176
     3
177
     3
178
     3
271
     0
340
17
  0
DIMSTYLE
105
C3
102
{ACAD_REACTORS
330
C4
102
}
330
9
100
AcDbSymbolTableRecord
100
AcDbDimStyleTableRecord
  2
7
 70
     0
 41
30.0
 42
4.0
 44
4.0
 73
     0
 74
     0
 77
     1
140
30.0
172
     1
176
     3
177
     3
178
     3
271
     0
340
17
  0
DIMSTYLE
105
D6
102
{ACAD_REACTORS
330
D7
102
}
330
9
100
AcDbSymbolTableRecord
100
AcDbDimStyleTableRecord
  2
8
 70
     0
 41
30.0
 42
4.0
 44
4.0
 73
     0
 74
     0
 77
     1
140
30.0
172
     1
176
     3
177
     3
178
     3
271
     0
340
17
  0
DIMSTYLE
105
12F
102
{ACAD_REACTORS
330
130
102
}
330
9
100
AcDbSymbolTableRecord
100
AcDbDimStyleTableRecord
  2
9
 70
     0
 41
30.0
 42
4.0
 44
4.0
 73
     0
 74
     0
 77
     1
140
30.0
172
     1
176
     3
177
     3
178
     3
271
     0
340
17
  0
DIMSTYLE
105
13F
102
{ACAD_REACTORS
330
140
102
}
330
9
100
AcDbSymbolTableRecord
100
AcDbDimStyleTableRecord
  2
10
 70
     0
 41
30.0
 42
4.0
 44
4.0
 73
     0
 74
     0
 77
     1
140
30.0
172
     1
176
     3
177
     3
178
     3
271
     0
340
17
  0
DIMSTYLE
105
14F
102
{ACAD_REACTORS
330
150
102
}
330
9
100
AcDbSymbolTableRecord
100
AcDbDimStyleTableRecord
  2
11
 70
     0
 41
30.0
 42
4.0
 44
4.0
 73
     0
 74
     0
 77
     1
140
30.0
172
     1
176
     3
177
     3
178
     3
271
     0
340
17
  0
DIMSTYLE
105
17F
102
{ACAD_REACTORS
330
180
102
}
330
9
100
AcDbSymbolTableRecord
100
AcDbDimStyleTableRecord
  2
12
 70
     0
 41
30.0
 42
4.0
 44
4.0
 73
     0
 74
     0
 77
     1
140
30.0
172
     1
176
     3
177
     3
178
     3
271
     0
340
17
  0
DIMSTYLE
105
18F
102
{ACAD_REACTORS
330
190
102
}
330
9
100
AcDbSymbolTableRecord
100
AcDbDimStyleTableRecord
  2
13
 70
     0
 41
30.0
 42
4.0
 44
4.0
 73
     0
 74
     0
 77
     1
140
30.0
172
     1
176
     3
177
     3
178
     3
271
     0
340
17
  0
DIMSTYLE
105
19F
102
{ACAD_REACTORS
330
1A0
102
}
330
9
100
AcDbSymbolTableRecord
100
AcDbDimStyleTableRecord
  2
14
 70
     0
 41
30.0
 42
4.0
 44
4.0
 73
     0
 74
     0
 77
     1
140
30.0
172
     1
176
     3
177
     3
178
     3
271
     0
340
17
  0
DIMSTYLE
105
41F
102
{ACAD_REACTORS
330
420
102
}
330
9
100
AcDbSymbolTableRecord
100
AcDbDimStyleTableRecord
  2
15
 70
     0
 41
30.0
 42
4.0
 44
4.0
 73
     0
 74
     0
 77
     1
140
30.0
172
     1
176
     3
177
     3
178
     3
271
     0
340
17
  0
DIMSTYLE
105
42F
102
{ACAD_REACTORS
330
430
102
}
330
9
100
AcDbSymbolTableRecord
100
AcDbDimStyleTableRecord
  2
16
 70
     0
 41
30.0
 42
4.0
 44
4.0
 73
     0
 74
     0
 77
     1
140
30.0
172
     1
176
     3
177
     3
178
     3
271
     0
340
17
  0
DIMSTYLE
105
43F
102
{ACAD_REACTORS
330
440
102
}
330
9
100
AcDbSymbolTableRecord
100
AcDbDimStyleTableRecord
  2
17
 70
     0
 41
30.0
 42
4.0
 44
4.0
 73
     0
 74
     0
 77
     1
140
30.0
172
     1
176
     3
177
     3
178
     3
271
     0
340
17
  0
ENDTAB
  0
TABLE
  2
BLOCK_RECORD
  5
1
330
0
100
AcDbSymbolTable
 70
    20
  0
BLOCK_RECORD
  5
A
330
1
100
AcDbSymbolTableRecord
100
AcDbBlockTableRecord
  2
*MODEL_SPACE
340
20
 70
     0
280
     1
281
     0
  0
BLOCK_RECORD
  5
B
330
1
100
AcDbSymbolTableRecord
100
AcDbBlockTableRecord
  2
*PAPER_SPACE
340
21
 70
     0
280
     1
281
     0
  0
BLOCK_RECORD
  5
57
330
1
100
AcDbSymbolTableRecord
100
AcDbBlockTableRecord
  2
*D0
340
0
 70
     0
280
     1
281
     0
  0
BLOCK_RECORD
  5
6D
330
1
100
AcDbSymbolTableRecord
100
AcDbBlockTableRecord
  2
*D1
340
0
 70
     0
280
     1
281
     0
  0
BLOCK_RECORD
  5
7F
330
1
100
AcDbSymbolTableRecord
100
AcDbBlockTableRecord
  2
*D2
340
0
 70
     0
280
     1
281
     0
  0
BLOCK_RECORD
  5
93
330
1
100
AcDbSymbolTableRecord
100
AcDbBlockTableRecord
  2
*D3
340
0
 70
     0
280
     1
281
     0
  0
BLOCK_RECORD
  5
A5
330
1
100
AcDbSymbolTableRecord
100
AcDbBlockTableRecord
  2
*D4
340
0
 70
     0
280
     1
281
     0
  0
BLOCK_RECORD
  5
B5
330
1
100
AcDbSymbolTableRecord
100
AcDbBlockTableRecord
  2
*D5
340
0
 70
     0
280
     1
281
     0
  0
BLOCK_RECORD
  5
C6
330
1
100
AcDbSymbolTableRecord
100
AcDbBlockTableRecord
  2
*D6
340
0
 70
     0
280
     1
281
     0
  0
BLOCK_RECORD
  5
11F
330
1
100
AcDbSymbolTableRecord
100
AcDbBlockTableRecord
  2
*D7
340
0
 70
     0
280
     1
281
     0
  0
BLOCK_RECORD
  5
131
330
1
100
AcDbSymbolTableRecord
100
AcDbBlockTableRecord
  2
*D8
340
0
 70
     0
280
     1
281
     0
  0
BLOCK_RECORD
  5
141
330
1
100
AcDbSymbolTableRecord
100
AcDbBlockTableRecord
  2
*D9
340
0
 70
     0
280
     1
281
     0
  0
BLOCK_RECORD
  5
171
330
1
100
AcDbSymbolTableRecord
100
AcDbBlockTableRecord
  2
*D10
340
0
 70
     0
280
     1
281
     0
  0
BLOCK_RECORD
  5
181
330
1
100
AcDbSymbolTableRecord
100
AcDbBlockTableRecord
  2
*D11
340
0
 70
     0
280
     1
281
     0
  0
BLOCK_RECORD
  5
191
330
1
100
AcDbSymbolTableRecord
100
AcDbBlockTableRecord
  2
*D12
340
0
 70
     0
280
     1
281
     0
  0
BLOCK_RECORD
  5
1E5
330
1
100
AcDbSymbolTableRecord
100
AcDbBlockTableRecord
  2
*H1313
340
0
102
{BLKREFS
331
20F
102
}
 70
     0
280
     1
281
     0
  0
BLOCK_RECORD
  5
210
330
1
100
AcDbSymbolTableRecord
100
AcDbBlockTableRecord
  2
*H1414
340
0
102
{BLKREFS
331
23A
102
}
 70
     0
280
     1
281
     0
  0
BLOCK_RECORD
  5
23C
330
1
100
AcDbSymbolTableRecord
100
AcDbBlockTableRecord
  2
*H1515
340
0
102
{BLKREFS
331
251
102
}
 70
     0
280
     1
281
     0
  0
BLOCK_RECORD
  5
252
330
1
100
AcDbSymbolTableRecord
100
AcDbBlockTableRecord
  2
*H1616
340
0
102
{BLKREFS
331
25E
102
}
 70
     0
280
     1
281
     0
  0
BLOCK_RECORD
  5
410
330
1
100
AcDbSymbolTableRecord
100
AcDbBlockTableRecord
  2
*D17
340
0
 70
     0
280
     1
281
     0
  0
BLOCK_RECORD
  5
421
330
1
100
AcDbSymbolTableRecord
100
AcDbBlockTableRecord
  2
*D18
340
0
 70
     0
280
     1
281
     0
  0
BLOCK_RECORD
  5
431
330
1
100
AcDbSymbolTableRecord
100
AcDbBlockTableRecord
  2
*D19
340
0
 70
     0
280
     1
281
     0
  0
ENDTAB
  0
ENDSEC
  0
SECTION
  2
BLOCKS
  0
BLOCK
  5
D
330
A
100
AcDbEntity
  8
0
100
AcDbBlockBegin
  2
*MODEL_SPACE
 70
     0
 10
0.0
 20
0.0
 30
0.0
  3
*MODEL_SPACE
  1

  0
ENDBLK
  5
E
330
A
100
AcDbEntity
  8
0
100
AcDbBlockEnd
  0
BLOCK
  5
F
330
B
100
AcDbEntity
 67
     1
  8
0
100
AcDbBlockBegin
  2
*PAPER_SPACE
 70
     0
 10
0.0
 20
0.0
 30
0.0
  3
*PAPER_SPACE
  1

  0
ENDBLK
  5
10
330
B
100
AcDbEntity
 67
     1
  8
0
100
AcDbBlockEnd
  0
BLOCK
  5
58
330
57
100
AcDbEntity
  8
0
100
AcDbBlockBegin
  2
*D0
 70
     0
 10
0.0
 20
0.0
 30
0.0
  3
*D0
  1

  0
LINE
  5
59
330
57
100
AcDbEntity
  8
1
  6
SOLID
 62
     3
100
AcDbLine
 10
1151.442871094
 20
788.009155273
 30
0.0
 11
1151.442871094
 21
804.095947266
 31
0.0
  0
LINE
  5
5A
330
57
100
AcDbEntity
  8
1
  6
SOLID
 62
     3
100
AcDbLine
 10
1931.442871094
 20
788.009155273
 30
0.0
 11
1931.442871094
 21
804.095947266
 31
0.0
  0
LINE
  5
5B
330
57
100
AcDbEntity
  8
1
  6
SOLID
 62
     3
100
AcDbLine
 10
1151.442871094
 20
803.0959472660001
 30
0.0
 11
1931.442871094
 21
803.0959472660001
 31
0.0
  0
LINE
  5
5C
330
57
100
AcDbEntity
  8
1
  6
SOLID
 62
     3
100
AcDbLine
 10
1181.442871094
 20
808.0954589839999
 30
0.0
 11
1151.442871094
 21
803.0959472660001
 31
0.0
  0
LINE
  5
5D
330
57
100
AcDbEntity
  8
1
  6
SOLID
 62
     3
100
AcDbLine
 10
1151.442871094
 20
803.0959472660001
 30
0.0
 11
1181.442871094
 21
798.0964355469999
 31
0.0
  0
LINE
  5
5E
330
57
100
AcDbEntity
  8
1
  6
SOLID
 62
     3
100
AcDbLine
 10
1181.442871094
 20
798.0964355469999
 30
0.0
 11
1181.442871094
 21
808.0954589839999
 31
0.0
  0
LINE
  5
5F
330
57
100
AcDbEntity
  8
1
  6
SOLID
 62
     3
100
AcDbLine
 10
1931.442871094
 20
803.0959472660001
 30
0.0
 11
1151.442871094
 21
803.0959472660001
 31
0.0
  0
LINE
  5
60
330
57
100
AcDbEntity
  8
1
  6
SOLID
 62
     3
100
AcDbLine
 10
1901.442871094
 20
798.0964355469999
 30
0.0
 11
1931.442871094
 21
803.0959472660001
 31
0.0
  0
LINE
  5
61
330
57
100
AcDbEntity
  8
1
  6
SOLID
 62
     3
100
AcDbLine
 10
1931.442871094
 20
803.0959472660001
 30
0.0
 11
1901.442871094
 21
808.0954589839999
 31
0.0
  0
LINE
  5
62
330
57
100
AcDbEntity
  8
1
  6
SOLID
 62
     3
100
AcDbLine
 10
1901.442871094
 20
808.0954589839999
 30
0.0
 11
1901.442871094
 21
798.0964355469999
 31
0.0
  0
TEXT
  5
63
330
57
100
AcDbEntity
  8
1
  6
SOLID
 62
     3
100
AcDbText
 10
1568.563354492
 20
818.0959472660001
 30
0.0
 40
30.0
  1
780
 41
0.9398769124399979
 72
     5
 11
1639.054122925
 21
818.0959472660001
 31
0.0
100
AcDbText
  0
ENDBLK
  5
64
330
57
100
AcDbEntity
  8
0
100
AcDbBlockEnd
  0
BLOCK
  5
6E
330
6D
100
AcDbEntity
  8
0
100
AcDbBlockBegin
  2
*D1
 70
     0
 10
0.0
 20
0.0
 30
0.0
  3
*D1
  1

  0
LINE
  5
6F
330
6D
100
AcDbEntity
  8
1
  6
SOLID
 62
     3
100
AcDbLine
 10
3221.442871094
 20
732.0892944339999
 30
0.0
 11
3221.442871094
 21
674.545227051
 31
0.0
  0
LINE
  5
70
330
6D
100
AcDbEntity
  8
1
  6
SOLID
 62
     3
100
AcDbLine
 10
3246.442871094
 20
748.9487915039999
 30
0.0
 11
3246.442871094
 21
674.545227051
 31
0.0
  0
LINE
  5
71
330
6D
100
AcDbEntity
  8
1
  6
SOLID
 62
     3
100
AcDbLine
 10
3221.442871094
 20
675.545227051
 30
0.0
 11
3142.042724609
 21
675.545227051
 31
0.0
  0
LINE
  5
72
330
6D
100
AcDbEntity
  8
1
  6
SOLID
 62
     3
100
AcDbLine
 10
3142.042724609
 20
675.545227051
 30
0.0
 11
3291.442871094
 21
675.545227051
 31
0.0
  0
LINE
  5
73
330
6D
100
AcDbEntity
  8
1
  6
SOLID
 62
     3
100
AcDbLine
 10
3191.442871094
 20
670.545715332
 30
0.0
 11
3221.442871094
 21
675.545227051
 31
0.0
  0
LINE
  5
74
330
6D
100
AcDbEntity
  8
1
  6
SOLID
 62
     3
100
AcDbLine
 10
3221.442871094
 20
675.545227051
 30
0.0
 11
3191.442871094
 21
680.54473877
 31
0.0
  0
LINE
  5
75
330
6D
100
AcDbEntity
  8
1
  6
SOLID
 62
     3
100
AcDbLine
 10
3191.442871094
 20
680.54473877
 30
0.0
 11
3191.442871094
 21
670.545715332
 31
0.0
  0
LINE
  5
76
330
6D
100
AcDbEntity
  8
1
  6
SOLID
 62
     3
100
AcDbLine
 10
3246.442871094
 20
675.545227051
 30
0.0
 11
3291.442871094
 21
675.545227051
 31
0.0
  0
LINE
  5
77
330
6D
100
AcDbEntity
  8
1
  6
SOLID
 62
     3
100
AcDbLine
 10
3291.442871094
 20
675.545227051
 30
0.0
 11
3142.042724609
 21
675.545227051
 31
0.0
  0
LINE
  5
78
330
6D
100
AcDbEntity
  8
1
  6
SOLID
 62
     3
100
AcDbLine
 10
3276.442871094
 20
680.54473877
 30
0.0
 11
3246.442871094
 21
675.545227051
 31
0.0
  0
LINE
  5
79
330
6D
100
AcDbEntity
  8
1
  6
SOLID
 62
     3
100
AcDbLine
 10
3246.442871094
 20
675.545227051
 30
0.0
 11
3276.442871094
 21
670.545715332
 31
0.0
  0
LINE
  5
7A
330
6D
100
AcDbEntity
  8
1
  6
SOLID
 62
     3
100
AcDbLine
 10
3276.442871094
 20
670.545715332
 30
0.0
 11
3276.442871094
 21
680.54473877
 31
0.0
  0
TEXT
  5
7B
330
6D
100
AcDbEntity
  8
1
  6
SOLID
 62
     3
100
AcDbText
 10
3155.292724609001
 20
690.5452270510001
 30
0.0
 40
30.0
  1
25
 41
0.8798769378799898
 72
     5
 11
3199.286571503
 21
690.5452270510001
 31
0.0
100
AcDbText
  0
ENDBLK
  5
7C
330
6D
100
AcDbEntity
  8
0
100
AcDbBlockEnd
  0
BLOCK
  5
80
330
7F
100
AcDbEntity
  8
0
100
AcDbBlockBegin
  2
*D2
 70
     0
 10
0.0
 20
0.0
 30
0.0
  3
*D2
  1

  0
LINE
  5
81
330
7F
100
AcDbEntity
  8
1
  6
SOLID
 62
     3
100
AcDbLine
 10
2596.442871094
 20
748.9487915039999
 30
0.0
 11
2596.442871094
 21
684.658203125
 31
0.0
  0
LINE
  5
82
330
7F
100
AcDbEntity
  8
1
  6
SOLID
 62
     3
100
AcDbLine
 10
2621.442871094
 20
732.089233398
 30
0.0
 11
2621.442871094
 21
684.658203125
 31
0.0
  0
LINE
  5
83
330
7F
100
AcDbEntity
  8
1
  6
SOLID
 62
     3
100
AcDbLine
 10
2596.442871094
 20
685.658203125
 30
0.0
 11
2551.442871094
 21
685.658203125
 31
0.0
  0
LINE
  5
84
330
7F
100
AcDbEntity
  8
1
  6
SOLID
 62
     3
100
AcDbLine
 10
2551.442871094
 20
685.658203125
 30
0.0
 11
2704.455078125
 21
685.658203125
 31
0.0
  0
LINE
  5
85
330
7F
100
AcDbEntity
  8
1
  6
SOLID
 62
     3
100
AcDbLine
 10
2566.442871094
 20
680.658691406
 30
0.0
 11
2596.442871094
 21
685.658203125
 31
0.0
  0
LINE
  5
86
330
7F
100
AcDbEntity
  8
1
  6
SOLID
 62
     3
100
AcDbLine
 10
2596.442871094
 20
685.658203125
 30
0.0
 11
2566.442871094
 21
690.6577148439999
 31
0.0
  0
LINE
  5
87
330
7F
100
AcDbEntity
  8
1
  6
SOLID
 62
     3
100
AcDbLine
 10
2566.442871094
 20
690.6577148439999
 30
0.0
 11
2566.442871094
 21
680.658691406
 31
0.0
  0
LINE
  5
88
330
7F
100
AcDbEntity
  8
1
  6
SOLID
 62
     3
100
AcDbLine
 10
2621.442871094
 20
685.658203125
 30
0.0
 11
2704.455078125
 21
685.658203125
 31
0.0
  0
LINE
  5
89
330
7F
100
AcDbEntity
  8
1
  6
SOLID
 62
     3
100
AcDbLine
 10
2704.455078125
 20
685.658203125
 30
0.0
 11
2551.442871094
 21
685.658203125
 31
0.0
  0
LINE
  5
8A
330
7F
100
AcDbEntity
  8
1
  6
SOLID
 62
     3
100
AcDbLine
 10
2651.442871094
 20
690.6577148439999
 30
0.0
 11
2621.442871094
 21
685.658203125
 31
0.0
  0
LINE
  5
8B
330
7F
100
AcDbEntity
  8
1
  6
SOLID
 62
     3
100
AcDbLine
 10
2621.442871094
 20
685.658203125
 30
0.0
 11
2651.442871094
 21
680.658691406
 31
0.0
  0
LINE
  5
8C
330
7F
100
AcDbEntity
  8
1
  6
SOLID
 62
     3
100
AcDbLine
 10
2651.442871094
 20
680.658691406
 30
0.0
 11
2651.442871094
 21
690.6577148439999
 31
0.0
  0
TEXT
  5
8D
330
7F
100
AcDbEntity
  8
1
  6
SOLID
 62
     3
100
AcDbText
 10
2647.211181641
 20
700.6582031249999
 30
0.0
 40
30.0
  1
25
 41
0.879876937859999
 72
     5
 11
2691.205028534
 21
700.6582031249999
 31
0.0
100
AcDbText
  0
ENDBLK
  5
8E
330
7F
100
AcDbEntity
  8
0
100
AcDbBlockEnd
  0
BLOCK
  5
94
330
93
100
AcDbEntity
  8
0
100
AcDbBlockBegin
  2
*D3
 70
     0
 10
0.0
 20
0.0
 30
0.0
  3
*D3
  1

  0
LINE
  5
95
330
93
100
AcDbEntity
  8
1
  6
SOLID
 62
     3
100
AcDbLine
 10
3141.442871094
 20
800.0361938480001
 30
0.0
 11
3141.442871094
 21
812.9920654300001
 31
0.0
  0
LINE
  5
96
330
93
100
AcDbEntity
  8
1
  6
SOLID
 62
     3
100
AcDbLine
 10
3221.442871094
 20
800.0361938480001
 30
0.0
 11
3221.442871094
 21
812.9920654300001
 31
0.0
  0
LINE
  5
97
330
93
100
AcDbEntity
  8
1
  6
SOLID
 62
     3
100
AcDbLine
 10
3141.442871094
 20
811.9920654299999
 30
0.0
 11
3096.442871094
 21
811.9920654299999
 31
0.0
  0
LINE
  5
98
330
93
100
AcDbEntity
  8
1
  6
SOLID
 62
     3
100
AcDbLine
 10
3096.442871094
 20
811.9920654299999
 30
0.0
 11
3266.442871094
 21
811.9920654299999
 31
0.0
  0
LINE
  5
99
330
93
100
AcDbEntity
  8
1
  6
SOLID
 62
     3
100
AcDbLine
 10
3111.442871094
 20
806.992553711
 30
0.0
 11
3141.442871094
 21
811.9920654299999
 31
0.0
  0
LINE
  5
9A
330
93
100
AcDbEntity
  8
1
  6
SOLID
 62
     3
100
AcDbLine
 10
3141.442871094
 20
811.9920654299999
 30
0.0
 11
3111.442871094
 21
816.9915771480001
 31
0.0
  0
LINE
  5
9B
330
93
100
AcDbEntity
  8
1
  6
SOLID
 62
     3
100
AcDbLine
 10
3111.442871094
 20
816.9915771480001
 30
0.0
 11
3111.442871094
 21
806.992553711
 31
0.0
  0
LINE
  5
9C
330
93
100
AcDbEntity
  8
1
  6
SOLID
 62
     3
100
AcDbLine
 10
3221.442871094
 20
811.9920654299999
 30
0.0
 11
3266.442871094
 21
811.9920654299999
 31
0.0
  0
LINE
  5
9D
330
93
100
AcDbEntity
  8
1
  6
SOLID
 62
     3
100
AcDbLine
 10
3266.442871094
 20
811.9920654299999
 30
0.0
 11
3096.442871094
 21
811.9920654299999
 31
0.0
  0
LINE
  5
9E
330
93
100
AcDbEntity
  8
1
  6
SOLID
 62
     3
100
AcDbLine
 10
3251.442871094
 20
816.9915771480001
 30
0.0
 11
3221.442871094
 21
811.9920654299999
 31
0.0
  0
LINE
  5
9F
330
93
100
AcDbEntity
  8
1
  6
SOLID
 62
     3
100
AcDbLine
 10
3221.442871094
 20
811.9920654299999
 30
0.0
 11
3251.442871094
 21
806.992553711
 31
0.0
  0
LINE
  5
A0
330
93
100
AcDbEntity
  8
1
  6
SOLID
 62
     3
100
AcDbLine
 10
3251.442871094
 20
806.992553711
 30
0.0
 11
3251.442871094
 21
816.9915771480001
 31
0.0
  0
TEXT
  5
A1
330
93
100
AcDbEntity
  8
1
  6
SOLID
 62
     3
100
AcDbText
 10
3155.785888672
 20
826.9920654299999
 30
0.0
 40
30.0
  1
80
 41
0.9776410420666657
 72
     5
 11
3199.779735565
 21
826.9920654299999
 31
0.0
100
AcDbText
  0
ENDBLK
  5
A2
330
93
100
AcDbEntity
  8
0
100
AcDbBlockEnd
  0
BLOCK
  5
A6
330
A5
100
AcDbEntity
  8
0
100
AcDbBlockBegin
  2
*D4
 70
     0
 10
0.0
 20
0.0
 30
0.0
  3
*D4
  1

  0
LINE
  5
A7
330
A5
100
AcDbEntity
  8
1
  6
SOLID
 62
     3
100
AcDbLine
 10
2766.443847656
 20
1489.073120117
 30
0.0
 11
2766.443847656
 21
1706.107299805
 31
0.0
  0
LINE
  5
A8
330
A5
100
AcDbEntity
  8
1
  6
SOLID
 62
     3
100
AcDbLine
 10
2966.443847656
 20
1550.948120117
 30
0.0
 11
2966.443847656
 21
1706.107299805
 31
0.0
  0
LINE
  5
A9
330
A5
100
AcDbEntity
  8
1
  6
SOLID
 62
     3
100
AcDbLine
 10
2766.443847656
 20
1705.107299805
 30
0.0
 11
2966.443847656
 21
1705.107299805
 31
0.0
  0
LINE
  5
AA
330
A5
100
AcDbEntity
  8
1
  6
SOLID
 62
     3
100
AcDbLine
 10
2796.443847656
 20
1710.106811523
 30
0.0
 11
2766.443847656
 21
1705.107299805
 31
0.0
  0
LINE
  5
AB
330
A5
100
AcDbEntity
  8
1
  6
SOLID
 62
     3
100
AcDbLine
 10
2766.443847656
 20
1705.107299805
 30
0.0
 11
2796.443847656
 21
1700.107788086
 31
0.0
  0
LINE
  5
AC
330
A5
100
AcDbEntity
  8
1
  6
SOLID
 62
     3
100
AcDbLine
 10
2796.443847656
 20
1700.107788086
 30
0.0
 11
2796.443847656
 21
1710.106811523
 31
0.0
  0
LINE
  5
AD
330
A5
100
AcDbEntity
  8
1
  6
SOLID
 62
     3
100
AcDbLine
 10
2966.443847656
 20
1705.107299805
 30
0.0
 11
2766.443847656
 21
1705.107299805
 31
0.0
  0
LINE
  5
AE
330
A5
100
AcDbEntity
  8
1
  6
SOLID
 62
     3
100
AcDbLine
 10
2936.443847656
 20
1700.107788086
 30
0.0
 11
2966.443847656
 21
1705.107299805
 31
0.0
  0
LINE
  5
AF
330
A5
100
AcDbEntity
  8
1
  6
SOLID
 62
     3
100
AcDbLine
 10
2966.443847656
 20
1705.107299805
 30
0.0
 11
2936.443847656
 21
1710.106811523
 31
0.0
  0
LINE
  5
B0
330
A5
100
AcDbEntity
  8
1
  6
SOLID
 62
     3
100
AcDbLine
 10
2936.443847656
 20
1710.106811523
 30
0.0
 11
2936.443847656
 21
1700.107788086
 31
0.0
  0
TEXT
  5
B1
330
A5
100
AcDbEntity
  8
1
  6
SOLID
 62
     3
100
AcDbText
 10
2831.198486328
 20
1720.107299805
 30
0.0
 40
30.0
  1
185
 41
1.00701097761428
 72
     5
 11
2901.689254761
 21
1720.107299805
 31
0.0
100
AcDbText
  0
ENDBLK
  5
B2
330
A5
100
AcDbEntity
  8
0
100
AcDbBlockEnd
  0
BLOCK
  5
B6
330
B5
100
AcDbEntity
  8
0
100
AcDbBlockBegin
  2
*D5
 70
     0
 10
0.0
 20
0.0
 30
0.0
  3
*D5
  1

  0
LINE
  5
B7
330
B5
100
AcDbEntity
  8
1
  6
SOLID
 62
     3
100
AcDbLine
 10
2966.443847656
 20
1550.948120117
 30
0.0
 11
2966.443847656
 21
1706.107299805
 31
0.0
  0
LINE
  5
B8
330
B5
100
AcDbEntity
  8
1
  6
SOLID
 62
     3
100
AcDbLine
 10
3246.443359375
 20
890.9488525389999
 30
0.0
 11
3246.443359375
 21
1706.107299805
 31
0.0
  0
LINE
  5
B9
330
B5
100
AcDbEntity
  8
1
  6
SOLID
 62
     3
100
AcDbLine
 10
2966.443847656
 20
1705.107299805
 30
0.0
 11
3246.443359375
 21
1705.107299805
 31
0.0
  0
LINE
  5
BA
330
B5
100
AcDbEntity
  8
1
  6
SOLID
 62
     3
100
AcDbLine
 10
2996.443847656
 20
1710.106811523
 30
0.0
 11
2966.443847656
 21
1705.107299805
 31
0.0
  0
LINE
  5
BB
330
B5
100
AcDbEntity
  8
1
  6
SOLID
 62
     3
100
AcDbLine
 10
2966.443847656
 20
1705.107299805
 30
0.0
 11
2996.443847656
 21
1700.107788086
 31
0.0
  0
LINE
  5
BC
330
B5
100
AcDbEntity
  8
1
  6
SOLID
 62
     3
100
AcDbLine
 10
2996.443847656
 20
1700.107788086
 30
0.0
 11
2996.443847656
 21
1710.106811523
 31
0.0
  0
LINE
  5
BD
330
B5
100
AcDbEntity
  8
1
  6
SOLID
 62
     3
100
AcDbLine
 10
3246.443359375
 20
1705.107299805
 30
0.0
 11
2966.443847656
 21
1705.107299805
 31
0.0
  0
LINE
  5
BE
330
B5
100
AcDbEntity
  8
1
  6
SOLID
 62
     3
100
AcDbLine
 10
3216.443359375
 20
1700.107788086
 30
0.0
 11
3246.443359375
 21
1705.107299805
 31
0.0
  0
LINE
  5
BF
330
B5
100
AcDbEntity
  8
1
  6
SOLID
 62
     3
100
AcDbLine
 10
3246.443359375
 20
1705.107299805
 30
0.0
 11
3216.443359375
 21
1710.106811523
 31
0.0
  0
LINE
  5
C0
330
B5
100
AcDbEntity
  8
1
  6
SOLID
 62
     3
100
AcDbLine
 10
3216.443359375
 20
1710.106811523
 30
0.0
 11
3216.443359375
 21
1700.107788086
 31
0.0
  0
TEXT
  5
C1
330
B5
100
AcDbEntity
  8
1
  6
SOLID
 62
     3
100
AcDbText
 10
3071.198242188
 20
1720.107299805
 30
0.0
 40
30.0
  1
295
 41
0.8811346054000011
 72
     5
 11
3141.68901062
 21
1720.107299805
 31
0.0
100
AcDbText
  0
ENDBLK
  5
C2
330
B5
100
AcDbEntity
  8
0
100
AcDbBlockEnd
  0
BLOCK
  5
C7
330
C6
100
AcDbEntity
  8
0
100
AcDbBlockBegin
  2
*D6
 70
     0
 10
0.0
 20
0.0
 30
0.0
  3
*D6
  1

  0
LINE
  5
C8
330
C6
100
AcDbEntity
  8
2
  6
SOLID
 62
     3
100
AcDbLine
 10
2921.443359375
 20
940.9481811519999
 30
0.0
 11
2921.443359375
 21
1640.127807617
 31
0.0
  0
LINE
  5
C9
330
C6
100
AcDbEntity
  8
2
  6
SOLID
 62
     3
100
AcDbLine
 10
3011.443359375
 20
940.9481811519999
 30
0.0
 11
3011.443359375
 21
1640.127807617
 31
0.0
  0
LINE
  5
CA
330
C6
100
AcDbEntity
  8
2
  6
SOLID
 62
     3
100
AcDbLine
 10
2921.443359375
 20
1639.127807617
 30
0.0
 11
2876.443359375
 21
1639.127807617
 31
0.0
  0
LINE
  5
CB
330
C6
100
AcDbEntity
  8
2
  6
SOLID
 62
     3
100
AcDbLine
 10
2876.443359375
 20
1639.127807617
 30
0.0
 11
3125.927734375
 21
1639.127807617
 31
0.0
  0
LINE
  5
CC
330
C6
100
AcDbEntity
  8
2
  6
SOLID
 62
     3
100
AcDbLine
 10
2891.443359375
 20
1634.128295898
 30
0.0
 11
2921.443359375
 21
1639.127807617
 31
0.0
  0
LINE
  5
CD
330
C6
100
AcDbEntity
  8
2
  6
SOLID
 62
     3
100
AcDbLine
 10
2921.443359375
 20
1639.127807617
 30
0.0
 11
2891.443359375
 21
1644.127319336
 31
0.0
  0
LINE
  5
CE
330
C6
100
AcDbEntity
  8
2
  6
SOLID
 62
     3
100
AcDbLine
 10
2891.443359375
 20
1644.127319336
 30
0.0
 11
2891.443359375
 21
1634.128295898
 31
0.0
  0
LINE
  5
CF
330
C6
100
AcDbEntity
  8
2
  6
SOLID
 62
     3
100
AcDbLine
 10
3011.443359375
 20
1639.127807617
 30
0.0
 11
3125.927734375
 21
1639.127807617
 31
0.0
  0
LINE
  5
D0
330
C6
100
AcDbEntity
  8
2
  6
SOLID
 62
     3
100
AcDbLine
 10
3125.927734375
 20
1639.127807617
 30
0.0
 11
2876.443359375
 21
1639.127807617
 31
0.0
  0
LINE
  5
D1
330
C6
100
AcDbEntity
  8
2
  6
SOLID
 62
     3
100
AcDbLine
 10
3041.443359375
 20
1644.127319336
 30
0.0
 11
3011.443359375
 21
1639.127807617
 31
0.0
  0
LINE
  5
D2
330
C6
100
AcDbEntity
  8
2
  6
SOLID
 62
     3
100
AcDbLine
 10
3011.443359375
 20
1639.127807617
 30
0.0
 11
3041.443359375
 21
1634.128295898
 31
0.0
  0
LINE
  5
D3
330
C6
100
AcDbEntity
  8
2
  6
SOLID
 62
     3
100
AcDbLine
 10
3041.443359375
 20
1634.128295898
 30
0.0
 11
3041.443359375
 21
1644.127319336
 31
0.0
  0
TEXT
  5
D4
330
C6
100
AcDbEntity
  8
2
  6
SOLID
 62
     3
100
AcDbText
 10
3068.683837891
 20
1654.127807617
 30
0.0
 40
30.0
  1
90
 41
0.9776410420666758
 72
     5
 11
3112.677684784
 21
1654.127807617
 31
0.0
100
AcDbText
  0
ENDBLK
  5
D5
330
C6
100
AcDbEntity
  8
0
100
AcDbBlockEnd
  0
BLOCK
  5
120
330
11F
100
AcDbEntity
  8
0
100
AcDbBlockBegin
  2
*D7
 70
     0
 10
0.0
 20
0.0
 30
0.0
  3
*D7
  1

  0
LINE
  5
121
330
11F
100
AcDbEntity
  8
1
  6
SOLID
 62
     3
100
AcDbLine
 10
2591.444335938
 20
1204.619750977
 30
0.0
 11
2591.444335938
 21
1706.107299805
 31
0.0
  0
LINE
  5
122
330
11F
100
AcDbEntity
  8
1
  6
SOLID
 62
     3
100
AcDbLine
 10
2636.444335938
 20
1295.948608398
 30
0.0
 11
2636.444335938
 21
1706.107299805
 31
0.0
  0
LINE
  5
123
330
11F
100
AcDbEntity
  8
1
  6
SOLID
 62
     3
100
AcDbLine
 10
2591.444335938
 20
1705.107299805
 30
0.0
 11
2546.444335938
 21
1705.107299805
 31
0.0
  0
LINE
  5
124
330
11F
100
AcDbEntity
  8
1
  6
SOLID
 62
     3
100
AcDbLine
 10
2546.444335938
 20
1705.107299805
 30
0.0
 11
2681.444335938
 21
1705.107299805
 31
0.0
  0
LINE
  5
125
330
11F
100
AcDbEntity
  8
1
  6
SOLID
 62
     3
100
AcDbLine
 10
2561.444335938
 20
1700.107788086
 30
0.0
 11
2591.444335938
 21
1705.107299805
 31
0.0
  0
LINE
  5
126
330
11F
100
AcDbEntity
  8
1
  6
SOLID
 62
     3
100
AcDbLine
 10
2591.444335938
 20
1705.107299805
 30
0.0
 11
2561.444335938
 21
1710.106811523
 31
0.0
  0
LINE
  5
127
330
11F
100
AcDbEntity
  8
1
  6
SOLID
 62
     3
100
AcDbLine
 10
2561.444335938
 20
1710.106811523
 30
0.0
 11
2561.444335938
 21
1700.107788086
 31
0.0
  0
LINE
  5
128
330
11F
100
AcDbEntity
  8
1
  6
SOLID
 62
     3
100
AcDbLine
 10
2636.444335938
 20
1705.107299805
 30
0.0
 11
2681.444335938
 21
1705.107299805
 31
0.0
  0
LINE
  5
129
330
11F
100
AcDbEntity
  8
1
  6
SOLID
 62
     3
100
AcDbLine
 10
2681.444335938
 20
1705.107299805
 30
0.0
 11
2546.444335938
 21
1705.107299805
 31
0.0
  0
LINE
  5
12A
330
11F
100
AcDbEntity
  8
1
  6
SOLID
 62
     3
100
AcDbLine
 10
2666.444335938
 20
1710.106811523
 30
0.0
 11
2636.444335938
 21
1705.107299805
 31
0.0
  0
LINE
  5
12B
330
11F
100
AcDbEntity
  8
1
  6
SOLID
 62
     3
100
AcDbLine
 10
2636.444335938
 20
1705.107299805
 30
0.0
 11
2666.444335938
 21
1700.107788086
 31
0.0
  0
LINE
  5
12C
330
11F
100
AcDbEntity
  8
1
  6
SOLID
 62
     3
100
AcDbLine
 10
2666.444335938
 20
1700.107788086
 30
0.0
 11
2666.444335938
 21
1710.106811523
 31
0.0
  0
TEXT
  5
12D
330
11F
100
AcDbEntity
  8
1
  6
SOLID
 62
     3
100
AcDbText
 10
2591.947509766
 20
1720.107299805
 30
0.0
 40
30.0
  1
45
 41
0.879876937859999
 72
     5
 11
2635.941356659
 21
1720.107299805
 31
0.0
100
AcDbText
  0
ENDBLK
  5
12E
330
11F
100
AcDbEntity
  8
0
100
AcDbBlockEnd
  0
BLOCK
  5
132
330
131
100
AcDbEntity
  8
0
100
AcDbBlockBegin
  2
*D8
 70
     0
 10
0.0
 20
0.0
 30
0.0
  3
*D8
  1

  0
LINE
  5
133
330
131
100
AcDbEntity
  8
2
  6
SOLID
 62
     3
100
AcDbLine
 10
1106.443359375
 20
748.9487304689999
 30
0.0
 11
1106.443359375
 21
676.5626220699999
 31
0.0
  0
LINE
  5
134
330
131
100
AcDbEntity
  8
2
  6
SOLID
 62
     3
100
AcDbLine
 10
1541.443359375
 20
832.2736816409999
 30
0.0
 11
1541.443359375
 21
676.5626220699999
 31
0.0
  0
LINE
  5
135
330
131
100
AcDbEntity
  8
2
  6
SOLID
 62
     3
100
AcDbLine
 10
1106.443359375
 20
677.5626220699999
 30
0.0
 11
1541.443359375
 21
677.5626220699999
 31
0.0
  0
LINE
  5
136
330
131
100
AcDbEntity
  8
2
  6
SOLID
 62
     3
100
AcDbLine
 10
1136.443359375
 20
682.5621337889999
 30
0.0
 11
1106.443359375
 21
677.5626220699999
 31
0.0
  0
LINE
  5
137
330
131
100
AcDbEntity
  8
2
  6
SOLID
 62
     3
100
AcDbLine
 10
1106.443359375
 20
677.5626220699999
 30
0.0
 11
1136.443359375
 21
672.5631103519999
 31
0.0
  0
LINE
  5
138
330
131
100
AcDbEntity
  8
2
  6
SOLID
 62
     3
100
AcDbLine
 10
1136.443359375
 20
672.5631103519999
 30
0.0
 11
1136.443359375
 21
682.5621337889999
 31
0.0
  0
LINE
  5
139
330
131
100
AcDbEntity
  8
2
  6
SOLID
 62
     3
100
AcDbLine
 10
1541.443359375
 20
677.5626220699999
 30
0.0
 11
1106.443359375
 21
677.5626220699999
 31
0.0
  0
LINE
  5
13A
330
131
100
AcDbEntity
  8
2
  6
SOLID
 62
     3
100
AcDbLine
 10
1511.443359375
 20
672.5631103519999
 30
0.0
 11
1541.443359375
 21
677.5626220699999
 31
0.0
  0
LINE
  5
13B
330
131
100
AcDbEntity
  8
2
  6
SOLID
 62
     3
100
AcDbLine
 10
1541.443359375
 20
677.5626220699999
 30
0.0
 11
1511.443359375
 21
682.5621337889999
 31
0.0
  0
LINE
  5
13C
330
131
100
AcDbEntity
  8
2
  6
SOLID
 62
     3
100
AcDbLine
 10
1511.443359375
 20
682.5621337889999
 30
0.0
 11
1511.443359375
 21
672.5631103519999
 31
0.0
  0
TEXT
  5
13D
330
131
100
AcDbEntity
  8
2
  6
SOLID
 62
     3
100
AcDbText
 10
1288.697998047
 20
692.5626220699999
 30
0.0
 40
30.0
  1
435
 41
0.8811346053999983
 72
     5
 11
1359.188766479
 21
692.5626220699999
 31
0.0
100
AcDbText
  0
ENDBLK
  5
13E
330
131
100
AcDbEntity
  8
0
100
AcDbBlockEnd
  0
BLOCK
  5
142
330
141
100
AcDbEntity
  8
0
100
AcDbBlockBegin
  2
*D9
 70
     0
 10
0.0
 20
0.0
 30
0.0
  3
*D9
  1

  0
LINE
  5
143
330
141
100
AcDbEntity
  8
1
  6
SOLID
 62
     3
100
AcDbLine
 10
2596.442871094
 20
748.9487915039999
 30
0.0
 11
2596.442871094
 21
585.137939453
 31
0.0
  0
LINE
  5
144
330
141
100
AcDbEntity
  8
1
  6
SOLID
 62
     3
100
AcDbLine
 10
3246.442871094
 20
748.9487915039999
 30
0.0
 11
3246.442871094
 21
585.137939453
 31
0.0
  0
LINE
  5
145
330
141
100
AcDbEntity
  8
1
  6
SOLID
 62
     3
100
AcDbLine
 10
2596.442871094
 20
586.1379394530001
 30
0.0
 11
3246.442871094
 21
586.1379394530001
 31
0.0
  0
LINE
  5
146
330
141
100
AcDbEntity
  8
1
  6
SOLID
 62
     3
100
AcDbLine
 10
2626.442871094
 20
591.1374511719999
 30
0.0
 11
2596.442871094
 21
586.1379394530001
 31
0.0
  0
LINE
  5
147
330
141
100
AcDbEntity
  8
1
  6
SOLID
 62
     3
100
AcDbLine
 10
2596.442871094
 20
586.1379394530001
 30
0.0
 11
2626.442871094
 21
581.1384277340001
 31
0.0
  0
LINE
  5
148
330
141
100
AcDbEntity
  8
1
  6
SOLID
 62
     3
100
AcDbLine
 10
2626.442871094
 20
581.1384277340001
 30
0.0
 11
2626.442871094
 21
591.1374511719999
 31
0.0
  0
LINE
  5
149
330
141
100
AcDbEntity
  8
1
  6
SOLID
 62
     3
100
AcDbLine
 10
3246.442871094
 20
586.1379394530001
 30
0.0
 11
2596.442871094
 21
586.1379394530001
 31
0.0
  0
LINE
  5
14A
330
141
100
AcDbEntity
  8
1
  6
SOLID
 62
     3
100
AcDbLine
 10
3216.442871094
 20
581.1384277340001
 30
0.0
 11
3246.442871094
 21
586.1379394530001
 31
0.0
  0
LINE
  5
14B
330
141
100
AcDbEntity
  8
1
  6
SOLID
 62
     3
100
AcDbLine
 10
3246.442871094
 20
586.1379394530001
 30
0.0
 11
3216.442871094
 21
591.1374511719999
 31
0.0
  0
LINE
  5
14C
330
141
100
AcDbEntity
  8
1
  6
SOLID
 62
     3
100
AcDbLine
 10
3216.442871094
 20
591.1374511719999
 30
0.0
 11
3216.442871094
 21
581.1384277340001
 31
0.0
  0
TEXT
  5
14D
330
141
100
AcDbEntity
  8
1
  6
SOLID
 62
     3
100
AcDbText
 10
2886.197509766
 20
601.137939453
 30
0.0
 40
30.0
  1
650
 50
0.0000013647121209
 41
0.9398769124266681
 72
     5
 11
2956.688278198
 21
601.1379411319999
 31
0.0
100
AcDbText
  0
ENDBLK
  5
14E
330
141
100
AcDbEntity
  8
0
100
AcDbBlockEnd
  0
BLOCK
  5
172
330
171
100
AcDbEntity
  8
0
100
AcDbBlockBegin
  2
*D10
 70
     0
 10
0.0
 20
0.0
 30
0.0
  3
*D10
  1

  0
LINE
  5
173
330
171
100
AcDbEntity
  8
2
  6
SOLID
 62
     3
100
AcDbLine
 10
1541.443359375
 20
832.2736816409999
 30
0.0
 11
1541.443359375
 21
676.5626220699999
 31
0.0
  0
LINE
  5
174
330
171
100
AcDbEntity
  8
2
  6
SOLID
 62
     3
100
AcDbLine
 10
1976.443359375
 20
748.9487304689999
 30
0.0
 11
1976.443359375
 21
676.5626220699999
 31
0.0
  0
LINE
  5
175
330
171
100
AcDbEntity
  8
2
  6
SOLID
 62
     3
100
AcDbLine
 10
1541.443359375
 20
677.5626220699999
 30
0.0
 11
1976.443359375
 21
677.5626220699999
 31
0.0
  0
LINE
  5
176
330
171
100
AcDbEntity
  8
2
  6
SOLID
 62
     3
100
AcDbLine
 10
1571.443359375
 20
682.5621337889999
 30
0.0
 11
1541.443359375
 21
677.5626220699999
 31
0.0
  0
LINE
  5
177
330
171
100
AcDbEntity
  8
2
  6
SOLID
 62
     3
100
AcDbLine
 10
1541.443359375
 20
677.5626220699999
 30
0.0
 11
1571.443359375
 21
672.5631103519999
 31
0.0
  0
LINE
  5
178
330
171
100
AcDbEntity
  8
2
  6
SOLID
 62
     3
100
AcDbLine
 10
1571.443359375
 20
672.5631103519999
 30
0.0
 11
1571.443359375
 21
682.5621337889999
 31
0.0
  0
LINE
  5
179
330
171
100
AcDbEntity
  8
2
  6
SOLID
 62
     3
100
AcDbLine
 10
1976.443359375
 20
677.5626220699999
 30
0.0
 11
1541.443359375
 21
677.5626220699999
 31
0.0
  0
LINE
  5
17A
330
171
100
AcDbEntity
  8
2
  6
SOLID
 62
     3
100
AcDbLine
 10
1946.443359375
 20
672.5631103519999
 30
0.0
 11
1976.443359375
 21
677.5626220699999
 31
0.0
  0
LINE
  5
17B
330
171
100
AcDbEntity
  8
2
  6
SOLID
 62
     3
100
AcDbLine
 10
1976.443359375
 20
677.5626220699999
 30
0.0
 11
1946.443359375
 21
682.5621337889999
 31
0.0
  0
LINE
  5
17C
330
171
100
AcDbEntity
  8
2
  6
SOLID
 62
     3
100
AcDbLine
 10
1946.443359375
 20
682.5621337889999
 30
0.0
 11
1946.443359375
 21
672.5631103519999
 31
0.0
  0
TEXT
  5
17D
330
171
100
AcDbEntity
  8
2
  6
SOLID
 62
     3
100
AcDbText
 10
1723.697998047
 20
692.5626220699999
 30
0.0
 40
30.0
  1
435
 41
0.8811346053999983
 72
     5
 11
1794.188766479
 21
692.5626220699999
 31
0.0
100
AcDbText
  0
ENDBLK
  5
17E
330
171
100
AcDbEntity
  8
0
100
AcDbBlockEnd
  0
BLOCK
  5
182
330
181
100
AcDbEntity
  8
0
100
AcDbBlockBegin
  2
*D11
 70
     0
 10
0.0
 20
0.0
 30
0.0
  3
*D11
  1

  0
LINE
  5
183
330
181
100
AcDbEntity
  8
2
  6
SOLID
 62
     3
100
AcDbLine
 10
1106.443359375
 20
748.9487304689999
 30
0.0
 11
1106.443359375
 21
585.137939453
 31
0.0
  0
LINE
  5
184
330
181
100
AcDbEntity
  8
2
  6
SOLID
 62
     3
100
AcDbLine
 10
1976.443359375
 20
748.9487304689999
 30
0.0
 11
1976.443359375
 21
585.137939453
 31
0.0
  0
LINE
  5
185
330
181
100
AcDbEntity
  8
2
  6
SOLID
 62
     3
100
AcDbLine
 10
1106.443359375
 20
586.1379394530001
 30
0.0
 11
1976.443359375
 21
586.1379394530001
 31
0.0
  0
LINE
  5
186
330
181
100
AcDbEntity
  8
2
  6
SOLID
 62
     3
100
AcDbLine
 10
1136.443359375
 20
591.1374511719999
 30
0.0
 11
1106.443359375
 21
586.1379394530001
 31
0.0
  0
LINE
  5
187
330
181
100
AcDbEntity
  8
2
  6
SOLID
 62
     3
100
AcDbLine
 10
1106.443359375
 20
586.1379394530001
 30
0.0
 11
1136.443359375
 21
581.1384277340001
 31
0.0
  0
LINE
  5
188
330
181
100
AcDbEntity
  8
2
  6
SOLID
 62
     3
100
AcDbLine
 10
1136.443359375
 20
581.1384277340001
 30
0.0
 11
1136.443359375
 21
591.1374511719999
 31
0.0
  0
LINE
  5
189
330
181
100
AcDbEntity
  8
2
  6
SOLID
 62
     3
100
AcDbLine
 10
1976.443359375
 20
586.1379394530001
 30
0.0
 11
1106.443359375
 21
586.1379394530001
 31
0.0
  0
LINE
  5
18A
330
181
100
AcDbEntity
  8
2
  6
SOLID
 62
     3
100
AcDbLine
 10
1946.443359375
 20
581.1384277340001
 30
0.0
 11
1976.443359375
 21
586.1379394530001
 31
0.0
  0
LINE
  5
18B
330
181
100
AcDbEntity
  8
2
  6
SOLID
 62
     3
100
AcDbLine
 10
1976.443359375
 20
586.1379394530001
 30
0.0
 11
1946.443359375
 21
591.1374511719999
 31
0.0
  0
LINE
  5
18C
330
181
100
AcDbEntity
  8
2
  6
SOLID
 62
     3
100
AcDbLine
 10
1946.443359375
 20
591.1374511719999
 30
0.0
 11
1946.443359375
 21
581.1384277340001
 31
0.0
  0
TEXT
  5
18D
330
181
100
AcDbEntity
  8
2
  6
SOLID
 62
     3
100
AcDbText
 10
1506.197998047
 20
601.137939453
 30
0.0
 40
30.0
  1
870
 41
0.939876912426665
 72
     5
 11
1576.688766479
 21
601.137939453
 31
0.0
100
AcDbText
  0
ENDBLK
  5
18E
330
181
100
AcDbEntity
  8
0
100
AcDbBlockEnd
  0
BLOCK
  5
192
330
191
100
AcDbEntity
  8
0
100
AcDbBlockBegin
  2
*D12
 70
     0
 10
0.0
 20
0.0
 30
0.0
  3
*D12
  1

  0
LINE
  5
193
330
191
100
AcDbEntity
  8
2
  6
SOLID
 62
     3
100
AcDbLine
 10
2636.443359375
 20
1295.948486328
 30
0.0
 11
2636.443359375
 21
1706.107299805
 31
0.0
  0
LINE
  5
194
330
191
100
AcDbEntity
  8
2
  6
SOLID
 62
     3
100
AcDbLine
 10
2766.443359375
 20
1489.073242187999
 30
0.0
 11
2766.443359375
 21
1706.107299805
 31
0.0
  0
LINE
  5
195
330
191
100
AcDbEntity
  8
2
  6
SOLID
 62
     3
100
AcDbLine
 10
2636.443359375
 20
1705.107299805
 30
0.0
 11
2766.443359375
 21
1705.107299805
 31
0.0
  0
LINE
  5
196
330
191
100
AcDbEntity
  8
2
  6
SOLID
 62
     3
100
AcDbLine
 10
2666.443359375
 20
1710.106811523
 30
0.0
 11
2636.443359375
 21
1705.107299805
 31
0.0
  0
LINE
  5
197
330
191
100
AcDbEntity
  8
2
  6
SOLID
 62
     3
100
AcDbLine
 10
2636.443359375
 20
1705.107299805
 30
0.0
 11
2666.443359375
 21
1700.107788086
 31
0.0
  0
LINE
  5
198
330
191
100
AcDbEntity
  8
2
  6
SOLID
 62
     3
100
AcDbLine
 10
2666.443359375
 20
1700.107788086
 30
0.0
 11
2666.443359375
 21
1710.106811523
 31
0.0
  0
LINE
  5
199
330
191
100
AcDbEntity
  8
2
  6
SOLID
 62
     3
100
AcDbLine
 10
2766.443359375
 20
1705.107299805
 30
0.0
 11
2636.443359375
 21
1705.107299805
 31
0.0
  0
LINE
  5
19A
330
191
100
AcDbEntity
  8
2
  6
SOLID
 62
     3
100
AcDbLine
 10
2736.443359375
 20
1700.107788086
 30
0.0
 11
2766.443359375
 21
1705.107299805
 31
0.0
  0
LINE
  5
19B
330
191
100
AcDbEntity
  8
2
  6
SOLID
 62
     3
100
AcDbLine
 10
2766.443359375
 20
1705.107299805
 30
0.0
 11
2736.443359375
 21
1710.106811523
 31
0.0
  0
LINE
  5
19C
330
191
100
AcDbEntity
  8
2
  6
SOLID
 62
     3
100
AcDbLine
 10
2736.443359375
 20
1710.106811523
 30
0.0
 11
2736.443359375
 21
1700.107788086
 31
0.0
  0
TEXT
  5
19D
330
191
100
AcDbEntity
  8
2
  6
SOLID
 62
     3
100
AcDbText
 10
2666.197998047
 20
1720.107299805
 30
0.0
 40
30.0
  1
130
 41
1.084473360492309
 72
     5
 11
2736.688766479
 21
1720.107299805
 31
0.0
100
AcDbText
  0
ENDBLK
  5
19E
330
191
100
AcDbEntity
  8
0
100
AcDbBlockEnd
  0
BLOCK
  5
1E6
330
1E5
100
AcDbEntity
  8
0
100
AcDbBlockBegin
  2
*H1313
 70
     0
 10
0.0
 20
0.0
 30
0.0
  3
*H1313
  1

  0
LINE
  5
1E7
330
1E5
100
AcDbEntity
  8
3
  6
SOLID
 62
     7
100
AcDbLine
 10
1878.646484375
 20
882.0128173830001
 30
0.0
 11
1878.518554688
 21
882.1412353519999
 31
0.0
  0
LINE
  5
1E8
330
1E5
100
AcDbEntity
  8
3
  6
SOLID
 62
     7
100
AcDbLine
 10
1878.497070312999
 20
882.7276611330001
 30
0.0
 11
1878.8828125
 21
882.3424072269999
 31
0.0
  0
LINE
  5
1E9
330
1E5
100
AcDbEntity
  8
3
  6
SOLID
 62
     7
100
AcDbLine
 10
1879.119140625
 20
882.6715087889999
 30
0.0
 11
1878.4765625
 21
883.3140869139999
 31
0.0
  0
LINE
  5
1EA
330
1E5
100
AcDbEntity
  8
3
  6
SOLID
 62
     7
100
AcDbLine
 10
1878.455078125
 20
883.9005126949999
 30
0.0
 11
1879.35546875
 21
883.001098633
 31
0.0
  0
LINE
  5
1EB
330
1E5
100
AcDbEntity
  8
3
  6
SOLID
 62
     7
100
AcDbLine
 10
1879.591796875
 20
883.3306884769999
 30
0.0
 11
1878.434570313
 21
884.4869384769999
 31
0.0
  0
LINE
  5
1EC
330
1E5
100
AcDbEntity
  8
3
  6
SOLID
 62
     7
100
AcDbLine
 10
1878.4140625
 20
885.0733642580001
 30
0.0
 11
1879.827148438
 21
883.659790039
 31
0.0
  0
LINE
  5
1ED
330
1E5
100
AcDbEntity
  8
3
  6
SOLID
 62
     7
100
AcDbLine
 10
1880.063476563
 20
883.9893798830001
 30
0.0
 11
1878.392578125
 21
885.6597900389999
 31
0.0
  0
LINE
  5
1EE
330
1E5
100
AcDbEntity
  8
3
  6
SOLID
 62
     7
100
AcDbLine
 10
1878.372070313
 20
886.2462158199999
 30
0.0
 11
1880.299804688
 21
884.318969727
 31
0.0
  0
LINE
  5
1EF
330
1E5
100
AcDbEntity
  8
3
  6
SOLID
 62
     7
100
AcDbLine
 10
1880.546875
 20
884.63684082
 30
0.0
 11
1878.3515625
 21
886.832641602
 31
0.0
  0
LINE
  5
1F0
330
1E5
100
AcDbEntity
  8
3
  6
SOLID
 62
     7
100
AcDbLine
 10
1878.330078125
 20
887.419067383
 30
0.0
 11
1880.84375
 21
884.90637207
 31
0.0
  0
LINE
  5
1F1
330
1E5
100
AcDbEntity
  8
3
  6
SOLID
 62
     7
100
AcDbLine
 10
1881.139648438
 20
885.175415039
 30
0.0
 11
1878.309570313
 21
888.005493164
 31
0.0
  0
LINE
  5
1F2
330
1E5
100
AcDbEntity
  8
3
  6
SOLID
 62
     7
100
AcDbLine
 10
1878.2890625
 20
888.591918945
 30
0.0
 11
1881.435546875
 21
885.444946289
 31
0.0
  0
LINE
  5
1F3
330
1E5
100
AcDbEntity
  8
3
  6
SOLID
 62
     7
100
AcDbLine
 10
1881.731445313
 20
885.7144775389999
 30
0.0
 11
1878.267578125
 21
889.1783447269999
 31
0.0
  0
LINE
  5
1F4
330
1E5
100
AcDbEntity
  8
3
  6
SOLID
 62
     7
100
AcDbLine
 10
1878.247070313
 20
889.764770508
 30
0.0
 11
1882.028320313
 21
885.9840087889999
 31
0.0
  0
LINE
  5
1F5
330
1E5
100
AcDbEntity
  8
3
  6
SOLID
 62
     7
100
AcDbLine
 10
1882.32421875
 20
886.2530517580001
 30
0.0
 11
1878.62890625
 21
889.9488525389999
 31
0.0
  0
LINE
  5
1F6
330
1E5
100
AcDbEntity
  8
3
  6
SOLID
 62
     7
100
AcDbLine
 10
1879.194335938
 20
889.9488525389999
 30
0.0
 11
1882.620117188
 21
886.5225830080001
 31
0.0
  0
LINE
  5
1F7
330
1E5
100
AcDbEntity
  8
3
  6
SOLID
 62
     7
100
AcDbLine
 10
1882.916015625
 20
886.792114258
 30
0.0
 11
1879.759765625
 21
889.9488525389999
 31
0.0
  0
LINE
  5
1F8
330
1E5
100
AcDbEntity
  8
3
  6
SOLID
 62
     7
100
AcDbLine
 10
1880.325195313
 20
889.9488525389999
 30
0.0
 11
1883.260742188
 21
887.013305664
 31
0.0
  0
LINE
  5
1F9
330
1E5
100
AcDbEntity
  8
3
  6
SOLID
 62
     7
100
AcDbLine
 10
1883.6171875
 20
887.2218017580001
 30
0.0
 11
1880.890625
 21
889.9488525389999
 31
0.0
  0
LINE
  5
1FA
330
1E5
100
AcDbEntity
  8
3
  6
SOLID
 62
     7
100
AcDbLine
 10
1881.456054688
 20
889.9488525389999
 30
0.0
 11
1883.974609375
 21
887.42980957
 31
0.0
  0
LINE
  5
1FB
330
1E5
100
AcDbEntity
  8
3
  6
SOLID
 62
     7
100
AcDbLine
 10
1884.33203125
 20
887.6378173830001
 30
0.0
 11
1882.021484375
 21
889.9488525389999
 31
0.0
  0
LINE
  5
1FC
330
1E5
100
AcDbEntity
  8
3
  6
SOLID
 62
     7
100
AcDbLine
 10
1882.587890625
 20
889.9488525389999
 30
0.0
 11
1884.689453125
 21
887.845825195
 31
0.0
  0
LINE
  5
1FD
330
1E5
100
AcDbEntity
  8
3
  6
SOLID
 62
     7
100
AcDbLine
 10
1885.047851562999
 20
888.054321289
 30
0.0
 11
1883.153320313
 21
889.9488525389999
 31
0.0
  0
LINE
  5
1FE
330
1E5
100
AcDbEntity
  8
3
  6
SOLID
 62
     7
100
AcDbLine
 10
1883.71875
 20
889.9488525389999
 30
0.0
 11
1885.404296875
 21
888.2623291019999
 31
0.0
  0
LINE
  5
1FF
330
1E5
100
AcDbEntity
  8
3
  6
SOLID
 62
     7
100
AcDbLine
 10
1885.76171875
 20
888.470336914
 30
0.0
 11
1884.284179688
 21
889.9488525389999
 31
0.0
  0
LINE
  5
200
330
1E5
100
AcDbEntity
  8
3
  6
SOLID
 62
     7
100
AcDbLine
 10
1884.849609375
 20
889.9488525389999
 30
0.0
 11
1886.163085937999
 21
888.634887695
 31
0.0
  0
LINE
  5
201
330
1E5
100
AcDbEntity
  8
3
  6
SOLID
 62
     7
100
AcDbLine
 10
1886.58984375
 20
888.7745361330001
 30
0.0
 11
1885.415039063
 21
889.9488525389999
 31
0.0
  0
LINE
  5
202
330
1E5
100
AcDbEntity
  8
3
  6
SOLID
 62
     7
100
AcDbLine
 10
1885.98046875
 20
889.9488525389999
 30
0.0
 11
1887.015625
 21
888.9141845699999
 31
0.0
  0
LINE
  5
203
330
1E5
100
AcDbEntity
  8
3
  6
SOLID
 62
     7
100
AcDbLine
 10
1887.44140625
 20
889.053344727
 30
0.0
 11
1886.546875
 21
889.9488525389999
 31
0.0
  0
LINE
  5
204
330
1E5
100
AcDbEntity
  8
3
  6
SOLID
 62
     7
100
AcDbLine
 10
1887.111328125
 20
889.9488525389999
 30
0.0
 11
1887.8671875
 21
889.192993164
 31
0.0
  0
LINE
  5
205
330
1E5
100
AcDbEntity
  8
3
  6
SOLID
 62
     7
100
AcDbLine
 10
1888.293945313
 20
889.3321533199999
 30
0.0
 11
1887.677734375
 21
889.9488525389999
 31
0.0
  0
LINE
  5
206
330
1E5
100
AcDbEntity
  8
3
  6
SOLID
 62
     7
100
AcDbLine
 10
1888.243164063
 20
889.9488525389999
 30
0.0
 11
1888.719726563
 21
889.471801758
 31
0.0
  0
LINE
  5
207
330
1E5
100
AcDbEntity
  8
3
  6
SOLID
 62
     7
100
AcDbLine
 10
1889.15625
 20
889.601196289
 30
0.0
 11
1888.80859375
 21
889.9488525389999
 31
0.0
  0
LINE
  5
208
330
1E5
100
AcDbEntity
  8
3
  6
SOLID
 62
     7
100
AcDbLine
 10
1889.374023438
 20
889.9483642580001
 30
0.0
 11
1889.66796875
 21
889.654907227
 31
0.0
  0
LINE
  5
209
330
1E5
100
AcDbEntity
  8
3
  6
SOLID
 62
     7
100
AcDbLine
 10
1890.1796875
 20
889.709106445
 30
0.0
 11
1889.939453125
 21
889.9483642580001
 31
0.0
  0
LINE
  5
20A
330
1E5
100
AcDbEntity
  8
3
  6
SOLID
 62
     7
100
AcDbLine
 10
1890.504882813
 20
889.9483642580001
 30
0.0
 11
1890.690429688
 21
889.763305664
 31
0.0
  0
LINE
  5
20B
330
1E5
100
AcDbEntity
  8
3
  6
SOLID
 62
     7
100
AcDbLine
 10
1891.202148438
 20
889.8175048830001
 30
0.0
 11
1891.0703125
 21
889.9483642580001
 31
0.0
  0
LINE
  5
20C
330
1E5
100
AcDbEntity
  8
3
  6
SOLID
 62
     7
100
AcDbLine
 10
1891.63671875
 20
889.9483642580001
 30
0.0
 11
1891.712890625
 21
889.87121582
 31
0.0
  0
LINE
  5
20D
330
1E5
100
AcDbEntity
  8
3
  6
SOLID
 62
     7
100
AcDbLine
 10
1892.224609375
 20
889.925415039
 30
0.0
 11
1892.202148438
 21
889.9483642580001
 31
0.0
  0
ENDBLK
  5
20E
330
1E5
100
AcDbEntity
  8
0
100
AcDbBlockEnd
  0
BLOCK
  5
211
330
210
100
AcDbEntity
  8
0
100
AcDbBlockBegin
  2
*H1414
 70
     0
 10
0.0
 20
0.0
 30
0.0
  3
*H1414
  1

  0
LINE
  5
212
330
210
100
AcDbEntity
  8
3
  6
SOLID
 62
     7
100
AcDbLine
 10
1204.239257813
 20
882.0128173830001
 30
0.0
 11
1204.368164063
 21
882.1412353519999
 31
0.0
  0
LINE
  5
213
330
210
100
AcDbEntity
  8
3
  6
SOLID
 62
     7
100
AcDbLine
 10
1204.388671875
 20
882.7276611330001
 30
0.0
 11
1204.002929688
 21
882.3424072269999
 31
0.0
  0
LINE
  5
214
330
210
100
AcDbEntity
  8
3
  6
SOLID
 62
     7
100
AcDbLine
 10
1203.767578125
 20
882.6715087889999
 30
0.0
 11
1204.41015625
 21
883.3140869139999
 31
0.0
  0
LINE
  5
215
330
210
100
AcDbEntity
  8
3
  6
SOLID
 62
     7
100
AcDbLine
 10
1204.430664063
 20
883.9005126949999
 30
0.0
 11
1203.53125
 21
883.001098633
 31
0.0
  0
LINE
  5
216
330
210
100
AcDbEntity
  8
3
  6
SOLID
 62
     7
100
AcDbLine
 10
1203.294921875
 20
883.3306884769999
 30
0.0
 11
1204.451171875
 21
884.4869384769999
 31
0.0
  0
LINE
  5
217
330
210
100
AcDbEntity
  8
3
  6
SOLID
 62
     7
100
AcDbLine
 10
1204.47265625
 20
885.0733642580001
 30
0.0
 11
1203.05859375
 21
883.659790039
 31
0.0
  0
LINE
  5
218
330
210
100
AcDbEntity
  8
3
  6
SOLID
 62
     7
100
AcDbLine
 10
1202.822265625
 20
883.9893798830001
 30
0.0
 11
1204.493164063
 21
885.6597900389999
 31
0.0
  0
LINE
  5
219
330
210
100
AcDbEntity
  8
3
  6
SOLID
 62
     7
100
AcDbLine
 10
1204.513671875
 20
886.2462158199999
 30
0.0
 11
1202.586914063
 21
884.318969727
 31
0.0
  0
LINE
  5
21A
330
210
100
AcDbEntity
  8
3
  6
SOLID
 62
     7
100
AcDbLine
 10
1202.338867188
 20
884.63684082
 30
0.0
 11
1204.53515625
 21
886.832641602
 31
0.0
  0
LINE
  5
21B
330
210
100
AcDbEntity
  8
3
  6
SOLID
 62
     7
100
AcDbLine
 10
1204.555664063
 20
887.419067383
 30
0.0
 11
1202.04296875
 21
884.90637207
 31
0.0
  0
LINE
  5
21C
330
210
100
AcDbEntity
  8
3
  6
SOLID
 62
     7
100
AcDbLine
 10
1201.747070313
 20
885.175415039
 30
0.0
 11
1204.576171875
 21
888.005493164
 31
0.0
  0
LINE
  5
21D
330
210
100
AcDbEntity
  8
3
  6
SOLID
 62
     7
100
AcDbLine
 10
1204.59765625
 20
888.591918945
 30
0.0
 11
1201.451171875
 21
885.444946289
 31
0.0
  0
LINE
  5
21E
330
210
100
AcDbEntity
  8
3
  6
SOLID
 62
     7
100
AcDbLine
 10
1201.154296875
 20
885.7144775389999
 30
0.0
 11
1204.618164063
 21
889.1783447269999
 31
0.0
  0
LINE
  5
21F
330
210
100
AcDbEntity
  8
3
  6
SOLID
 62
     7
100
AcDbLine
 10
1204.638671875
 20
889.764770508
 30
0.0
 11
1200.858398438
 21
885.9840087889999
 31
0.0
  0
LINE
  5
220
330
210
100
AcDbEntity
  8
3
  6
SOLID
 62
     7
100
AcDbLine
 10
1200.5625
 20
886.2530517580001
 30
0.0
 11
1204.2578125
 21
889.9488525389999
 31
0.0
  0
LINE
  5
221
330
210
100
AcDbEntity
  8
3
  6
SOLID
 62
     7
100
AcDbLine
 10
1203.692382813
 20
889.9488525389999
 30
0.0
 11
1200.265625
 21
886.5225830080001
 31
0.0
  0
LINE
  5
222
330
210
100
AcDbEntity
  8
3
  6
SOLID
 62
     7
100
AcDbLine
 10
1199.969726563
 20
886.792114258
 30
0.0
 11
1203.126953125
 21
889.9488525389999
 31
0.0
  0
LINE
  5
223
330
210
100
AcDbEntity
  8
3
  6
SOLID
 62
     7
100
AcDbLine
 10
1202.560546875
 20
889.9488525389999
 30
0.0
 11
1199.625976563
 21
887.013305664
 31
0.0
  0
LINE
  5
224
330
210
100
AcDbEntity
  8
3
  6
SOLID
 62
     7
100
AcDbLine
 10
1199.268554688
 20
887.2218017580001
 30
0.0
 11
1201.99609375
 21
889.9488525389999
 31
0.0
  0
LINE
  5
225
330
210
100
AcDbEntity
  8
3
  6
SOLID
 62
     7
100
AcDbLine
 10
1201.4296875
 20
889.9488525389999
 30
0.0
 11
1198.911132813
 21
887.42980957
 31
0.0
  0
LINE
  5
226
330
210
100
AcDbEntity
  8
3
  6
SOLID
 62
     7
100
AcDbLine
 10
1198.553710938
 20
887.6378173830001
 30
0.0
 11
1200.864257813
 21
889.9488525389999
 31
0.0
  0
LINE
  5
227
330
210
100
AcDbEntity
  8
3
  6
SOLID
 62
     7
100
AcDbLine
 10
1200.298828125
 20
889.9488525389999
 30
0.0
 11
1198.196289063
 21
887.845825195
 31
0.0
  0
LINE
  5
228
330
210
100
AcDbEntity
  8
3
  6
SOLID
 62
     7
100
AcDbLine
 10
1197.838867188
 20
888.054321289
 30
0.0
 11
1199.733398438
 21
889.9488525389999
 31
0.0
  0
LINE
  5
229
330
210
100
AcDbEntity
  8
3
  6
SOLID
 62
     7
100
AcDbLine
 10
1199.16796875
 20
889.9488525389999
 30
0.0
 11
1197.481445313
 21
888.2623291019999
 31
0.0
  0
LINE
  5
22A
330
210
100
AcDbEntity
  8
3
  6
SOLID
 62
     7
100
AcDbLine
 10
1197.124023438
 20
888.470336914
 30
0.0
 11
1198.6015625
 21
889.9488525389999
 31
0.0
  0
LINE
  5
22B
330
210
100
AcDbEntity
  8
3
  6
SOLID
 62
     7
100
AcDbLine
 10
1198.037109375
 20
889.9488525389999
 30
0.0
 11
1196.72265625
 21
888.634887695
 31
0.0
  0
LINE
  5
22C
330
210
100
AcDbEntity
  8
3
  6
SOLID
 62
     7
100
AcDbLine
 10
1196.296875
 20
888.7745361330001
 30
0.0
 11
1197.470703125
 21
889.9488525389999
 31
0.0
  0
LINE
  5
22D
330
210
100
AcDbEntity
  8
3
  6
SOLID
 62
     7
100
AcDbLine
 10
1196.905273438
 20
889.9488525389999
 30
0.0
 11
1195.87109375
 21
888.9141845699999
 31
0.0
  0
LINE
  5
22E
330
210
100
AcDbEntity
  8
3
  6
SOLID
 62
     7
100
AcDbLine
 10
1195.4453125
 20
889.053344727
 30
0.0
 11
1196.33984375
 21
889.9488525389999
 31
0.0
  0
LINE
  5
22F
330
210
100
AcDbEntity
  8
3
  6
SOLID
 62
     7
100
AcDbLine
 10
1195.774414063
 20
889.9488525389999
 30
0.0
 11
1195.018554688
 21
889.192993164
 31
0.0
  0
LINE
  5
230
330
210
100
AcDbEntity
  8
3
  6
SOLID
 62
     7
100
AcDbLine
 10
1194.592773438
 20
889.3321533199999
 30
0.0
 11
1195.208984375
 21
889.9488525389999
 31
0.0
  0
LINE
  5
231
330
210
100
AcDbEntity
  8
3
  6
SOLID
 62
     7
100
AcDbLine
 10
1194.643554688
 20
889.9488525389999
 30
0.0
 11
1194.166015625
 21
889.471801758
 31
0.0
  0
LINE
  5
232
330
210
100
AcDbEntity
  8
3
  6
SOLID
 62
     7
100
AcDbLine
 10
1193.73046875
 20
889.601196289
 30
0.0
 11
1194.078125
 21
889.9488525389999
 31
0.0
  0
LINE
  5
233
330
210
100
AcDbEntity
  8
3
  6
SOLID
 62
     7
100
AcDbLine
 10
1193.51171875
 20
889.9483642580001
 30
0.0
 11
1193.21875
 21
889.654907227
 31
0.0
  0
LINE
  5
234
330
210
100
AcDbEntity
  8
3
  6
SOLID
 62
     7
100
AcDbLine
 10
1192.70703125
 20
889.709106445
 30
0.0
 11
1192.946289063
 21
889.9483642580001
 31
0.0
  0
LINE
  5
235
330
210
100
AcDbEntity
  8
3
  6
SOLID
 62
     7
100
AcDbLine
 10
1192.380859375
 20
889.9483642580001
 30
0.0
 11
1192.1953125
 21
889.763305664
 31
0.0
  0
LINE
  5
236
330
210
100
AcDbEntity
  8
3
  6
SOLID
 62
     7
100
AcDbLine
 10
1191.68359375
 20
889.8175048830001
 30
0.0
 11
1191.815429688
 21
889.9483642580001
 31
0.0
  0
LINE
  5
237
330
210
100
AcDbEntity
  8
3
  6
SOLID
 62
     7
100
AcDbLine
 10
1191.25
 20
889.9483642580001
 30
0.0
 11
1191.172851563
 21
889.87121582
 31
0.0
  0
LINE
  5
238
330
210
100
AcDbEntity
  8
3
  6
SOLID
 62
     7
100
AcDbLine
 10
1190.661132813
 20
889.925415039
 30
0.0
 11
1190.684570313
 21
889.9483642580001
 31
0.0
  0
ENDBLK
  5
239
330
210
100
AcDbEntity
  8
0
100
AcDbBlockEnd
  0
BLOCK
  5
23D
330
23C
100
AcDbEntity
  8
0
100
AcDbBlockBegin
  2
*H1515
 70
     0
 10
0.0
 20
0.0
 30
0.0
  3
*H1515
  1

  0
LINE
  5
23E
330
23C
100
AcDbEntity
  8
3
  6
SOLID
 62
     7
100
AcDbLine
 10
1146.301757813
 20
885.0899658199999
 30
0.0
 11
1146.443359375
 21
885.231567383
 31
0.0
  0
LINE
  5
23F
330
23C
100
AcDbEntity
  8
3
  6
SOLID
 62
     7
100
AcDbLine
 10
1146.443359375
 20
885.7969970699999
 30
0.0
 11
1146.01953125
 21
885.3726806639999
 31
0.0
  0
LINE
  5
240
330
23C
100
AcDbEntity
  8
3
  6
SOLID
 62
     7
100
AcDbLine
 10
1145.736328125
 20
885.655883789
 30
0.0
 11
1146.443359375
 21
886.362915039
 31
0.0
  0
LINE
  5
241
330
23C
100
AcDbEntity
  8
3
  6
SOLID
 62
     7
100
AcDbLine
 10
1146.443359375
 20
886.9283447269999
 30
0.0
 11
1145.453125
 21
885.938598633
 31
0.0
  0
LINE
  5
242
330
23C
100
AcDbEntity
  8
3
  6
SOLID
 62
     7
100
AcDbLine
 10
1145.170898438
 20
886.221313477
 30
0.0
 11
1146.443359375
 21
887.493774414
 31
0.0
  0
LINE
  5
243
330
23C
100
AcDbEntity
  8
3
  6
SOLID
 62
     7
100
AcDbLine
 10
1146.443359375
 20
888.0592041019999
 30
0.0
 11
1144.887695313
 21
886.50402832
 31
0.0
  0
LINE
  5
244
330
23C
100
AcDbEntity
  8
3
  6
SOLID
 62
     7
100
AcDbLine
 10
1144.60546875
 20
886.786743164
 30
0.0
 11
1146.443359375
 21
888.62512207
 31
0.0
  0
LINE
  5
245
330
23C
100
AcDbEntity
  8
3
  6
SOLID
 62
     7
100
AcDbLine
 10
1146.443359375
 20
889.1905517580001
 30
0.0
 11
1144.322265625
 21
887.069458008
 31
0.0
  0
LINE
  5
246
330
23C
100
AcDbEntity
  8
3
  6
SOLID
 62
     7
100
AcDbLine
 10
1144.0390625
 20
887.352172852
 30
0.0
 11
1146.443359375
 21
889.755981445
 31
0.0
  0
LINE
  5
247
330
23C
100
AcDbEntity
  8
3
  6
SOLID
 62
     7
100
AcDbLine
 10
1146.0703125
 20
889.9488525389999
 30
0.0
 11
1143.756835938
 21
887.634887695
 31
0.0
  0
LINE
  5
248
330
23C
100
AcDbEntity
  8
3
  6
SOLID
 62
     7
100
AcDbLine
 10
1143.474609375
 20
887.917602539
 30
0.0
 11
1145.504882813
 21
889.9488525389999
 31
0.0
  0
LINE
  5
249
330
23C
100
AcDbEntity
  8
3
  6
SOLID
 62
     7
100
AcDbLine
 10
1144.939453125
 20
889.9488525389999
 30
0.0
 11
1143.19140625
 21
888.200805664
 31
0.0
  0
LINE
  5
24A
330
23C
100
AcDbEntity
  8
3
  6
SOLID
 62
     7
100
AcDbLine
 10
1142.908203125
 20
888.4835205080001
 30
0.0
 11
1144.374023438
 21
889.9488525389999
 31
0.0
  0
LINE
  5
24B
330
23C
100
AcDbEntity
  8
3
  6
SOLID
 62
     7
100
AcDbLine
 10
1143.80859375
 20
889.9488525389999
 30
0.0
 11
1142.625976563
 21
888.7662353519999
 31
0.0
  0
LINE
  5
24C
330
23C
100
AcDbEntity
  8
3
  6
SOLID
 62
     7
100
AcDbLine
 10
1142.342773438
 20
889.048950195
 30
0.0
 11
1143.2421875
 21
889.9488525389999
 31
0.0
  0
LINE
  5
24D
330
23C
100
AcDbEntity
  8
3
  6
SOLID
 62
     7
100
AcDbLine
 10
1142.677734375
 20
889.9488525389999
 30
0.0
 11
1142.060546875
 21
889.331665039
 31
0.0
  0
LINE
  5
24E
330
23C
100
AcDbEntity
  8
3
  6
SOLID
 62
     7
100
AcDbLine
 10
1141.77734375
 20
889.6143798830001
 30
0.0
 11
1142.111328125
 21
889.9488525389999
 31
0.0
  0
LINE
  5
24F
330
23C
100
AcDbEntity
  8
3
  6
SOLID
 62
     7
100
AcDbLine
 10
1141.545898438
 20
889.9488525389999
 30
0.0
 11
1141.494140625
 21
889.8970947269999
 31
0.0
  0
ENDBLK
  5
250
330
23C
100
AcDbEntity
  8
0
100
AcDbBlockEnd
  0
BLOCK
  5
253
330
252
100
AcDbEntity
  8
0
100
AcDbBlockBegin
  2
*H1616
 70
     0
 10
0.0
 20
0.0
 30
0.0
  3
*H1616
  1

  0
LINE
  5
254
330
252
100
AcDbEntity
  8
3
  6
SOLID
 62
     7
100
AcDbLine
 10
1936.443359375
 20
885.231567383
 30
0.0
 11
1941.16015625
 21
889.9483642580001
 31
0.0
  0
LINE
  5
255
330
252
100
AcDbEntity
  8
3
  6
SOLID
 62
     7
100
AcDbLine
 10
1940.594726563
 20
889.9483642580001
 30
0.0
 11
1936.443359375
 21
885.797485352
 31
0.0
  0
LINE
  5
256
330
252
100
AcDbEntity
  8
3
  6
SOLID
 62
     7
100
AcDbLine
 10
1936.443359375
 20
886.362915039
 30
0.0
 11
1940.029296875
 21
889.9483642580001
 31
0.0
  0
LINE
  5
257
330
252
100
AcDbEntity
  8
3
  6
SOLID
 62
     7
100
AcDbLine
 10
1939.463867188
 20
889.9483642580001
 30
0.0
 11
1936.443359375
 21
886.9283447269999
 31
0.0
  0
LINE
  5
258
330
252
100
AcDbEntity
  8
3
  6
SOLID
 62
     7
100
AcDbLine
 10
1936.443359375
 20
887.493774414
 30
0.0
 11
1938.8984375
 21
889.9488525389999
 31
0.0
  0
LINE
  5
259
330
252
100
AcDbEntity
  8
3
  6
SOLID
 62
     7
100
AcDbLine
 10
1938.33203125
 20
889.9488525389999
 30
0.0
 11
1936.443359375
 21
888.0592041019999
 31
0.0
  0
LINE
  5
25A
330
252
100
AcDbEntity
  8
3
  6
SOLID
 62
     7
100
AcDbLine
 10
1936.443359375
 20
888.62512207
 30
0.0
 11
1937.766601563
 21
889.9488525389999
 31
0.0
  0
LINE
  5
25B
330
252
100
AcDbEntity
  8
3
  6
SOLID
 62
     7
100
AcDbLine
 10
1937.201171875
 20
889.9488525389999
 30
0.0
 11
1936.443359375
 21
889.1905517580001
 31
0.0
  0
LINE
  5
25C
330
252
100
AcDbEntity
  8
3
  6
SOLID
 62
     7
100
AcDbLine
 10
1936.443359375
 20
889.755981445
 30
0.0
 11
1936.635742188
 21
889.9488525389999
 31
0.0
  0
ENDBLK
  5
25D
330
252
100
AcDbEntity
  8
0
100
AcDbBlockEnd
  0
BLOCK
  5
411
330
410
100
AcDbEntity
  8
0
100
AcDbBlockBegin
  2
*D17
 70
     0
 10
0.0
 20
0.0
 30
0.0
  3
*D17
  1

  0
LINE
  5
412
330
410
100
AcDbEntity
  8
1
  6
SOLID
 62
     3
100
AcDbLine
 10
1977.442871094
 20
749.9487915039999
 30
0.0
 11
2372.084472656
 21
749.9487915039999
 31
0.0
  0
LINE
  5
413
330
410
100
AcDbEntity
  8
1
  6
SOLID
 62
     3
100
AcDbLine
 10
1772.442626953
 20
1089.948730469
 30
0.0
 11
2372.084472656
 21
1089.948730469
 31
0.0
  0
LINE
  5
414
330
410
100
AcDbEntity
  8
1
  6
SOLID
 62
     3
100
AcDbLine
 10
2371.084472656
 20
749.9487915039999
 30
0.0
 11
2371.084472656
 21
1089.948730469
 31
0.0
  0
LINE
  5
415
330
410
100
AcDbEntity
  8
1
  6
SOLID
 62
     3
100
AcDbLine
 10
2366.084960938
 20
779.9487915039999
 30
0.0
 11
2371.084472656
 21
749.9487915039999
 31
0.0
  0
LINE
  5
416
330
410
100
AcDbEntity
  8
1
  6
SOLID
 62
     3
100
AcDbLine
 10
2371.084472656
 20
749.9487915039999
 30
0.0
 11
2376.083984375
 21
779.9487915039999
 31
0.0
  0
LINE
  5
417
330
410
100
AcDbEntity
  8
1
  6
SOLID
 62
     3
100
AcDbLine
 10
2376.083984375
 20
779.9487915039999
 30
0.0
 11
2366.084960938
 21
779.9487915039999
 31
0.0
  0
LINE
  5
418
330
410
100
AcDbEntity
  8
1
  6
SOLID
 62
     3
100
AcDbLine
 10
2371.084472656
 20
1089.948730469
 30
0.0
 11
2371.084472656
 21
749.9487915039999
 31
0.0
  0
LINE
  5
419
330
410
100
AcDbEntity
  8
1
  6
SOLID
 62
     3
100
AcDbLine
 10
2376.083984375
 20
1059.948730469
 30
0.0
 11
2371.084472656
 21
1089.948730469
 31
0.0
  0
LINE
  5
41A
330
410
100
AcDbEntity
  8
1
  6
SOLID
 62
     3
100
AcDbLine
 10
2371.084472656
 20
1089.948730469
 30
0.0
 11
2366.084960938
 21
1059.948730469
 31
0.0
  0
LINE
  5
41B
330
410
100
AcDbEntity
  8
1
  6
SOLID
 62
     3
100
AcDbLine
 10
2366.084960938
 20
1059.948730469
 30
0.0
 11
2376.083984375
 21
1059.948730469
 31
0.0
  0
TEXT
  5
41C
330
410
100
AcDbEntity
  8
1
  6
SOLID
 62
     3
100
AcDbText
 10
2356.084472656
 20
808.958007813
 30
0.0
 40
30.0
  1
330
 50
90.00000250427515
 41
0.9398769124266671
 72
     5
 11
2356.084469575
 21
879.448776245
 31
0.0
100
AcDbText
  0
TEXT
  5
41D
330
410
100
AcDbEntity
  8
1
  6
SOLID
 62
     3
100
AcDbText
 10
2356.084472656
 20
897.4580078129999
 30
0.0
 40
30.0
  1
 (360)
 50
90.00000250445165
 41
0.9826312887241385
 72
     5
 11
2356.084466428
 21
1039.939544678
 31
0.0
100
AcDbText
  0
ENDBLK
  5
41E
330
410
100
AcDbEntity
  8
0
100
AcDbBlockEnd
  0
BLOCK
  5
422
330
421
100
AcDbEntity
  8
0
100
AcDbBlockBegin
  2
*D18
 70
     0
 10
0.0
 20
0.0
 30
0.0
  3
*D18
  1

  0
LINE
  5
423
330
421
100
AcDbEntity
  8
1
  6
SOLID
 62
     3
100
AcDbLine
 10
1772.442626953
 20
1089.948730469
 30
0.0
 11
2372.084472656
 21
1089.948730469
 31
0.0
  0
LINE
  5
424
330
421
100
AcDbEntity
  8
1
  6
SOLID
 62
     3
100
AcDbLine
 10
1828.576660156
 20
1493.026977539
 30
0.0
 11
2372.084472656
 21
1493.026977539
 31
0.0
  0
LINE
  5
425
330
421
100
AcDbEntity
  8
1
  6
SOLID
 62
     3
100
AcDbLine
 10
2371.084472656
 20
1089.948730469
 30
0.0
 11
2371.084472656
 21
1493.026977539
 31
0.0
  0
LINE
  5
426
330
421
100
AcDbEntity
  8
1
  6
SOLID
 62
     3
100
AcDbLine
 10
2366.084960938
 20
1119.948730469
 30
0.0
 11
2371.084472656
 21
1089.948730469
 31
0.0
  0
LINE
  5
427
330
421
100
AcDbEntity
  8
1
  6
SOLID
 62
     3
100
AcDbLine
 10
2371.084472656
 20
1089.948730469
 30
0.0
 11
2376.083984375
 21
1119.948730469
 31
0.0
  0
LINE
  5
428
330
421
100
AcDbEntity
  8
1
  6
SOLID
 62
     3
100
AcDbLine
 10
2376.083984375
 20
1119.948730469
 30
0.0
 11
2366.084960938
 21
1119.948730469
 31
0.0
  0
LINE
  5
429
330
421
100
AcDbEntity
  8
1
  6
SOLID
 62
     3
100
AcDbLine
 10
2371.084472656
 20
1493.026977539
 30
0.0
 11
2371.084472656
 21
1089.948730469
 31
0.0
  0
LINE
  5
42A
330
421
100
AcDbEntity
  8
1
  6
SOLID
 62
     3
100
AcDbLine
 10
2376.083984375
 20
1463.026977539
 30
0.0
 11
2371.084472656
 21
1493.026977539
 31
0.0
  0
LINE
  5
42B
330
421
100
AcDbEntity
  8
1
  6
SOLID
 62
     3
100
AcDbLine
 10
2371.084472656
 20
1493.026977539
 30
0.0
 11
2366.084960938
 21
1463.026977539
 31
0.0
  0
LINE
  5
42C
330
421
100
AcDbEntity
  8
1
  6
SOLID
 62
     3
100
AcDbLine
 10
2366.084960938
 20
1463.026977539
 30
0.0
 11
2376.083984375
 21
1463.026977539
 31
0.0
  0
TEXT
  5
42D
330
421
100
AcDbEntity
  8
1
  6
SOLID
 62
     3
100
AcDbText
 10
2356.084472656
 20
1256.242431641
 30
0.0
 40
30.0
  1
405
 50
90.00000250427515
 41
0.9398769124266658
 72
     5
 11
2356.084469575
 21
1326.733200073
 31
0.0
100
AcDbText
  0
ENDBLK
  5
42E
330
421
100
AcDbEntity
  8
0
100
AcDbBlockEnd
  0
BLOCK
  5
432
330
431
100
AcDbEntity
  8
0
100
AcDbBlockBegin
  2
*D19
 70
     0
 10
0.0
 20
0.0
 30
0.0
  3
*D19
  1

  0
LINE
  5
433
330
431
100
AcDbEntity
  8
1
  6
SOLID
 62
     3
100
AcDbLine
 10
1977.442871094
 20
749.9487915039999
 30
0.0
 11
2468.183105469
 21
749.9487915039999
 31
0.0
  0
LINE
  5
434
330
431
100
AcDbEntity
  8
1
  6
SOLID
 62
     3
100
AcDbLine
 10
1828.576660156
 20
1493.026977539
 30
0.0
 11
2468.183105469
 21
1493.026977539
 31
0.0
  0
LINE
  5
435
330
431
100
AcDbEntity
  8
1
  6
SOLID
 62
     3
100
AcDbLine
 10
2467.183105469
 20
749.9487915039999
 30
0.0
 11
2467.183105469
 21
1493.026977539
 31
0.0
  0
LINE
  5
436
330
431
100
AcDbEntity
  8
1
  6
SOLID
 62
     3
100
AcDbLine
 10
2462.18359375
 20
779.9487915039999
 30
0.0
 11
2467.183105469
 21
749.9487915039999
 31
0.0
  0
LINE
  5
437
330
431
100
AcDbEntity
  8
1
  6
SOLID
 62
     3
100
AcDbLine
 10
2467.183105469
 20
749.9487915039999
 30
0.0
 11
2472.182617188
 21
779.9487915039999
 31
0.0
  0
LINE
  5
438
330
431
100
AcDbEntity
  8
1
  6
SOLID
 62
     3
100
AcDbLine
 10
2472.182617188
 20
779.9487915039999
 30
0.0
 11
2462.18359375
 21
779.9487915039999
 31
0.0
  0
LINE
  5
439
330
431
100
AcDbEntity
  8
1
  6
SOLID
 62
     3
100
AcDbLine
 10
2467.183105469
 20
1493.026977539
 30
0.0
 11
2467.183105469
 21
749.9487915039999
 31
0.0
  0
LINE
  5
43A
330
431
100
AcDbEntity
  8
1
  6
SOLID
 62
     3
100
AcDbLine
 10
2472.182617188
 20
1463.026977539
 30
0.0
 11
2467.183105469
 21
1493.026977539
 31
0.0
  0
LINE
  5
43B
330
431
100
AcDbEntity
  8
1
  6
SOLID
 62
     3
100
AcDbLine
 10
2467.183105469
 20
1493.026977539
 30
0.0
 11
2462.18359375
 21
1463.026977539
 31
0.0
  0
LINE
  5
43C
330
431
100
AcDbEntity
  8
1
  6
SOLID
 62
     3
100
AcDbLine
 10
2462.18359375
 20
1463.026977539
 30
0.0
 11
2472.182617188
 21
1463.026977539
 31
0.0
  0
TEXT
  5
43D
330
431
100
AcDbEntity
  8
1
  6
SOLID
 62
     3
100
AcDbText
 10
2452.183105469
 20
1086.242553711
 30
0.0
 40
30.0
  1
735
 50
90.0000025042755
 41
0.8811346054124991
 72
     5
 11
2452.183102388
 21
1156.733322144
 31
0.0
100
AcDbText
  0
ENDBLK
  5
43E
330
431
100
AcDbEntity
  8
0
100
AcDbBlockEnd
  0
ENDSEC
  0
SECTION
  2
ENTITIES
  0
LINE
  5
56
330
A
100
AcDbEntity
  8
1
  6
SOLID
 62
     7
100
AcDbLine
 10
2686.443471765
 20
1494.958866061
 30
0.0
 11
2846.443471765
 21
1494.958866061
 31
0.0
  0
DIMENSION
  5
66
330
A
100
AcDbEntity
  8
1
  6
SOLID
 62
     3
100
AcDbDimension
280
     0
  2
*D0
 10
1151.442871094
 20
803.0959472660001
 30
0.0
 11
1568.563354492
 21
818.0959472660001
 31
0.0
 71
     5
 42
0.0
 73
     0
 74
     0
 75
     0
  3
2
100
AcDbAlignedDimension
 13
1931.442871094
 23
787.009155273
 33
0.0
 14
1151.442871094
 24
787.009155273
 34
0.0
100
AcDbRotatedDimension
  0
LINE
  5
67
330
A
100
AcDbEntity
  8
2
  6
SOLID
 62
     3
100
AcDbLine
 10
2330.277110801
 20
1046.024124926
 30
0.0
 11
2350.277110801
 21
1046.024124926
 31
0.0
  0
LINE
  5
68
330
A
100
AcDbEntity
  8
2
  6
SOLID
 62
     3
100
AcDbLine
 10
2340.277110801
 20
1046.024124926
 30
0.0
 11
2340.277110801
 21
1056.024124926
 31
0.0
  0
LINE
  5
69
330
A
100
AcDbEntity
  8
2
  6
SOLID
 62
     3
100
AcDbLine
 10
2340.277110801
 20
1036.024124926
 30
0.0
 11
2340.277110801
 21
1056.024124926
 31
0.0
  0
LINE
  5
6A
330
A
100
AcDbEntity
  8
2
  6
SOLID
 62
     3
100
AcDbLine
 10
2333.206042989
 20
1038.953057113999
 30
0.0
 11
2347.348178613
 21
1053.095192738
 31
0.0
  0
LINE
  5
6B
330
A
100
AcDbEntity
  8
2
  6
SOLID
 62
     3
100
AcDbLine
 10
2340.277110801
 20
1046.024124926
 30
0.0
 11
2333.206042989
 21
1053.095192738
 31
0.0
  0
LINE
  5
6C
330
A
100
AcDbEntity
  8
2
  6
SOLID
 62
     3
100
AcDbLine
 10
2347.348178613
 20
1038.953057113999
 30
0.0
 11
2333.206042989
 21
1053.095192738
 31
0.0
  0
DIMENSION
  5
7E
330
A
100
AcDbEntity
  8
1
  6
SOLID
 62
     3
100
AcDbDimension
280
     0
  2
*D1
 10
3221.442871094
 20
675.545227051
 30
0.0
 11
3155.292724609001
 21
690.5452270510001
 31
0.0
 71
     5
 42
0.0
 73
     0
 74
     0
 75
     0
  3
3
100
AcDbAlignedDimension
 13
3246.442871094
 23
749.9487915039999
 33
0.0
 14
3221.442871094
 24
733.0892944339999
 34
0.0
100
AcDbRotatedDimension
  0
DIMENSION
  5
90
330
A
100
AcDbEntity
  8
1
  6
SOLID
 62
     3
100
AcDbDimension
280
     0
  2
*D2
 10
2596.442871094
 20
685.658203125
 30
0.0
 11
2647.211181641
 21
700.6582031249999
 31
0.0
 71
     5
 42
0.0
 73
     0
 74
     0
 75
     0
  3
4
100
AcDbAlignedDimension
 13
2621.442871094
 23
733.089233398
 33
0.0
 14
2596.442871094
 24
749.9487915039999
 34
0.0
100
AcDbRotatedDimension
  0
LINE
  5
92
330
A
100
AcDbEntity
  8
3
  6
CENTER
 62
     2
100
AcDbLine
 10
3141.442903073
 20
733.0892677839999
 30
0.0
 11
3141.442901503
 21
799.0362070089998
 31
0.0
  0
DIMENSION
  5
A4
330
A
100
AcDbEntity
  8
1
  6
SOLID
 62
     3
100
AcDbDimension
280
     0
  2
*D3
 10
3141.442871094
 20
811.9920654299999
 30
0.0
 11
3155.785888672
 21
826.9920654299999
 31
0.0
 71
     5
 42
0.0
 73
     0
 74
     0
 75
     0
  3
5
100
AcDbAlignedDimension
 13
3221.442871094
 23
799.036193848
 33
0.0
 14
3141.442871094
 24
799.036193848
 34
0.0
100
AcDbRotatedDimension
  0
DIMENSION
  5
B4
330
A
100
AcDbEntity
  8
1
  6
SOLID
 62
     3
100
AcDbDimension
280
     0
  2
*D4
 10
2766.443847656
 20
1705.107299805
 30
0.0
 11
2831.198486328
 21
1720.107299805
 31
0.0
  1
  185   
 71
     5
 42
0.0
 73
     0
 74
     0
 75
     0
  3
6
100
AcDbAlignedDimension
 13
2966.443847656
 23
1549.948120117
 33
0.0
 14
2766.443847656
 24
1488.073120117
 34
0.0
100
AcDbRotatedDimension
  0
DIMENSION
  5
C4
330
A
100
AcDbEntity
  8
1
  6
SOLID
 62
     3
100
AcDbDimension
280
     0
  2
*D5
 10
2966.443847656
 20
1705.107299805
 30
0.0
 11
3071.198242188
 21
1720.107299805
 31
0.0
  1
  295   
 71
     5
 42
0.0
 73
     0
 74
     0
 75
     0
  3
7
100
AcDbAlignedDimension
 13
3246.443359375
 23
889.9488525389999
 33
0.0
 14
2966.443847656
 24
1549.948120117
 34
0.0
100
AcDbRotatedDimension
  0
ARC
  5
C5
330
A
100
AcDbEntity
  8
3
  6
SOLID
 62
     7
100
AcDbCircle
 10
1281.443124964
 20
1069.948775498
 30
0.0
 40
30.0
100
AcDbArc
 50
270.0
 51
308.792655141
  0
DIMENSION
  5
D7
330
A
100
AcDbEntity
  8
2
  6
SOLID
 62
     3
100
AcDbDimension
280
     0
  2
*D6
 10
2921.443359375
 20
1639.127807617
 30
0.0
 11
3068.683837891
 21
1654.127807617
 31
0.0
 71
     5
 42
0.0
 73
     0
 74
     0
 75
     0
  3
8
100
AcDbAlignedDimension
 13
3011.443359375
 23
939.9481811519999
 33
0.0
 14
2921.443359375
 24
939.9481811519999
 34
0.0
100
AcDbRotatedDimension
  0
LINE
  5
D8
330
A
100
AcDbEntity
  8
50
  6
SOLID
 62
     7
100
AcDbLine
 10
1762.580660649
 20
1420.463854597
 30
0.0
 11
1768.651481499
 21
1418.836760444
 31
0.0
  0
LINE
  5
DA
330
A
100
AcDbEntity
  8
1
  6
L_DASH
 62
     7
100
AcDbLine
 10
1764.073679383
 20
1426.034620364
 30
0.0
 11
1766.181820385
 21
1433.902305936
 31
0.0
  0
ARC
  5
DB
330
A
100
AcDbEntity
  8
3
  6
SOLID
 62
     7
100
AcDbCircle
 10
1801.442596139
 20
1069.948775498
 30
0.0
 40
30.0
100
AcDbArc
 50
231.207334498
 51
270.0
  0
ARC
  5
DC
330
A
100
AcDbEntity
  8
50
  6
SOLID
 62
     7
100
AcDbCircle
 10
1764.793912462
 20
1417.479689252
 30
0.0
 40
4.089315873
100
AcDbArc
 50
310.612026914
 51
19.380530509
  0
LINE
  5
DD
330
A
100
AcDbEntity
  8
50
  6
CENTER
 62
     7
100
AcDbLine
 10
1766.480639988
 20
1424.200510705
 30
0.0
 11
1771.754503012
 21
1422.787016237
 31
0.0
  0
ARC
  5
DE
330
A
100
AcDbEntity
  8
50
  6
SOLID
 62
     7
100
AcDbCircle
 10
1755.773035106
 20
1427.070182515
 30
0.0
 40
15.285466596
100
AcDbArc
 50
327.408322621
 51
2.584234801999999
  0
LINE
  5
DF
330
A
100
AcDbEntity
  8
50
  6
SOLID
 62
     7
100
AcDbLine
 10
1772.330963136
 20
1429.805137877
 30
0.0
 11
1768.743792028
 21
1416.421110211
 31
0.0
  0
ARC
  5
E0
330
A
100
AcDbEntity
  8
50
  6
SOLID
 62
     7
100
AcDbCircle
 10
1768.38108357
 20
1430.863716917
 30
0.0
 40
4.089315873
100
AcDbArc
 50
310.612026914
 51
19.380530509
  0
LINE
  5
E1
330
A
100
AcDbEntity
  8
50
  6
SOLID
 62
     7
100
AcDbLine
 10
1764.971529646
 20
1429.386694909
 30
0.0
 11
1771.042928949
 21
1427.75944572
 31
0.0
  0
LINE
  5
E2
330
A
100
AcDbEntity
  8
50
  6
SOLID
 62
     7
100
AcDbLine
 10
1766.166991769
 20
1433.848044654
 30
0.0
 11
1772.238680297
 21
1432.220717947
 31
0.0
  0
LINE
  5
E3
330
A
100
AcDbEntity
  8
50
  6
SOLID
 62
     7
100
AcDbLine
 10
2053.908964925
 20
1364.053197337
 30
0.0
 11
1767.993601397
 21
1440.664024667
 31
0.0
  0
LINE
  5
E4
330
A
100
AcDbEntity
  8
50
  6
SOLID
 62
     7
100
AcDbLine
 10
1767.455757899
 20
1414.375417773
 30
0.0
 11
1761.385226151
 21
1416.002434441
 31
0.0
  0
TEXT
  5
E5
330
A
100
AcDbEntity
  8
2
  6
SOLID
 62
     3
100
AcDbText
 10
1265.301513672
 20
604.3244628909999
 30
0.0
 40
30.0
  1
(970)
 41
1.097355585513044
 72
     5
 11
1391.497406006
 21
604.3244628909999
 31
0.0
100
AcDbText
  0
LINE
  5
E6
330
A
100
AcDbEntity
  8
3
  6
SOLID
 62
     7
100
AcDbLine
 10
3246.442899338
 20
889.9487987149999
 30
0.0
 11
3246.442902672
 21
749.9487987149999
 31
0.0
  0
LINE
  5
E7
330
A
100
AcDbEntity
  8
3
  6
CENTER
 62
     2
100
AcDbLine
 10
2621.442903073
 20
733.089258736
 30
0.0
 11
2621.442901503
 21
799.0361979610001
 31
0.0
  0
LINE
  5
E8
330
A
100
AcDbEntity
  8
1
  6
SOLID
 62
     7
100
AcDbLine
 10
3011.443471765
 20
1539.948192607
 30
0.0
 11
2921.443471765
 21
1539.948192607
 31
0.0
  0
LINE
  5
E9
330
A
100
AcDbEntity
  8
3
  6
SOLID
 62
     7
100
AcDbLine
 10
1976.442860552
 20
757.948775498
 30
0.0
 11
1976.442860552
 21
749.948775498
 31
0.0
  0
ARC
  5
EA
330
A
100
AcDbEntity
  8
3
  6
L_DASH
 62
     7
100
AcDbCircle
 10
1801.442596139
 20
1069.948775498
 30
0.0
 40
30.0
100
AcDbArc
 50
180.0
 51
231.207334498
  0
LINE
  5
EB
330
A
100
AcDbEntity
  8
3
  6
SOLID
 62
     7
100
AcDbLine
 10
1931.442860552
 20
1039.948775498
 30
0.0
 11
1801.442596139
 21
1039.948775498
 31
0.0
  0
LINE
  5
EC
330
A
100
AcDbEntity
  8
3
  6
L_DASH
 62
     7
100
AcDbLine
 10
1771.442596139
 20
1089.948873021
 30
0.0
 11
1771.442596139
 21
1069.948775498
 31
0.0
  0
LINE
  5
ED
330
A
100
AcDbEntity
  8
3
  6
SOLID
 62
     7
100
AcDbLine
 10
1936.442860552
 20
889.948775498
 30
0.0
 11
1936.442860552
 21
881.948775498
 31
0.0
  0
LINE
  5
EE
330
A
100
AcDbEntity
  8
3
  6
L_DASH
 62
     7
100
AcDbLine
 10
1771.442596139
 20
1081.948775498
 30
0.0
 11
1541.442860552
 21
1081.948775498
 31
0.0
  0
LINE
  5
EF
330
A
100
AcDbEntity
  8
3
  6
L_DASH
 62
     7
100
AcDbLine
 10
1771.442596139
 20
1089.948775498
 30
0.0
 11
1541.442860552
 21
1089.948775498
 31
0.0
  0
LINE
  5
F0
330
A
100
AcDbEntity
  8
3
  6
SOLID
 62
     7
100
AcDbLine
 10
1146.442860552
 20
889.948775498
 30
0.0
 11
1146.442860552
 21
881.948775498
 31
0.0
  0
LINE
  5
F1
330
A
100
AcDbEntity
  8
3
  6
SOLID
 62
     7
100
AcDbLine
 10
1151.442860552
 20
1039.948775498
 30
0.0
 11
1281.443124964
 21
1039.948775498
 31
0.0
  0
ARC
  5
F2
330
A
100
AcDbEntity
  8
3
  6
L_DASH
 62
     7
100
AcDbCircle
 10
1281.443124964
 20
1069.948775498
 30
0.0
 40
30.0
100
AcDbArc
 50
308.792655141
 51
0.0
  0
ARC
  5
F3
330
A
100
AcDbEntity
  8
3
  6
SOLID
 62
     7
100
AcDbCircle
 10
1190.442860552
 20
873.948775498
 30
0.0
 40
16.0
100
AcDbArc
 50
0.0
 51
90.0
  0
LINE
  5
F4
330
A
100
AcDbEntity
  8
3
  6
SOLID
 62
     7
100
AcDbLine
 10
1146.442860552
 20
881.948775498
 30
0.0
 11
1190.442860552
 21
881.948775498
 31
0.0
  0
ARC
  5
F5
330
A
100
AcDbEntity
  8
3
  6
SOLID
 62
     7
100
AcDbCircle
 10
1190.442860552
 20
873.948775498
 30
0.0
 40
8.0
100
AcDbArc
 50
0.0
 51
90.0
  0
LINE
  5
F6
330
A
100
AcDbEntity
  8
3
  6
SOLID
 62
     7
100
AcDbLine
 10
1941.442860552
 20
889.948775498
 30
0.0
 11
1541.442860552
 21
889.948775498
 31
0.0
  0
LINE
  5
F7
330
A
100
AcDbEntity
  8
3
  6
SOLID
 62
     7
100
AcDbLine
 10
1941.442860552
 20
897.948775498
 30
0.0
 11
1541.442860552
 21
897.948775498
 31
0.0
  0
LINE
  5
F8
330
A
100
AcDbEntity
  8
3
  6
SOLID
 62
     7
100
AcDbLine
 10
1876.442860552
 20
873.948775498
 30
0.0
 11
1876.442860552
 21
765.948775498
 31
0.0
  0
ARC
  5
F9
330
A
100
AcDbEntity
  8
3
  6
SOLID
 62
     7
100
AcDbCircle
 10
1892.442860552
 20
765.948775498
 30
0.0
 40
16.0
100
AcDbArc
 50
180.0
 51
270.0
  0
ARC
  5
FA
330
A
100
AcDbEntity
  8
3
  6
SOLID
 62
     7
100
AcDbCircle
 10
1892.442860552
 20
873.948775498
 30
0.0
 40
16.0
100
AcDbArc
 50
90.0
 51
180.0
  0
LINE
  5
FB
330
A
100
AcDbEntity
  8
3
  6
SOLID
 62
     7
100
AcDbLine
 10
1976.442860552
 20
757.948775498
 30
0.0
 11
1892.442860552
 21
757.948775498
 31
0.0
  0
LINE
  5
FC
330
A
100
AcDbEntity
  8
3
  6
SOLID
 62
     7
100
AcDbLine
 10
1884.442860552
 20
873.948775498
 30
0.0
 11
1884.442860552
 21
765.948775498
 31
0.0
  0
ARC
  5
FD
330
A
100
AcDbEntity
  8
3
  6
SOLID
 62
     7
100
AcDbCircle
 10
1892.442860552
 20
765.948775498
 30
0.0
 40
8.0
100
AcDbArc
 50
180.0
 51
270.0
  0
LINE
  5
FE
330
A
100
AcDbEntity
  8
3
  6
SOLID
 62
     7
100
AcDbLine
 10
1936.442860552
 20
881.948775498
 30
0.0
 11
1892.442860552
 21
881.948775498
 31
0.0
  0
ARC
  5
FF
330
A
100
AcDbEntity
  8
3
  6
SOLID
 62
     7
100
AcDbCircle
 10
1892.442860552
 20
873.948775498
 30
0.0
 40
8.0
100
AcDbArc
 50
90.0
 51
180.0
  0
LINE
  5
100
330
A
100
AcDbEntity
  8
3
  6
CENTER
 62
     2
100
AcDbLine
 10
3221.442903073
 20
733.0892696889999
 30
0.0
 11
3221.442901503
 21
799.036208914
 31
0.0
  0
LINE
  5
101
330
A
100
AcDbEntity
  8
3
  6
SOLID
 62
     7
100
AcDbLine
 10
2596.44290248
 20
757.948787073
 30
0.0
 11
3246.442902482
 21
757.9488022069999
 31
0.0
  0
LINE
  5
102
330
A
100
AcDbEntity
  8
3
  6
SOLID
 62
     7
100
AcDbLine
 10
3246.442899529001
 20
881.948802207
 30
0.0
 11
2596.442899528
 21
881.948787073
 31
0.0
  0
LINE
  5
103
330
A
100
AcDbEntity
  8
3
  6
SOLID
 62
     7
100
AcDbLine
 10
2596.442899337001
 20
889.9487868089998
 30
0.0
 11
2596.442902671
 21
749.9487868089999
 31
0.0
  0
LINE
  5
104
330
A
100
AcDbEntity
  8
3
  6
SOLID
 62
     7
100
AcDbLine
 10
2666.442903862
 20
1079.948798477
 30
0.0
 11
2666.442903671
 21
1071.948798477
 31
0.0
  0
ARC
  5
105
330
A
100
AcDbEntity
  8
3
  6
SOLID
 62
     7
100
AcDbCircle
 10
2710.442857853
 20
905.9489939810001
 30
0.0
 40
16.0
100
AcDbArc
 50
270.0
 51
0.0
  0
ARC
  5
106
330
A
100
AcDbEntity
  8
3
  6
SOLID
 62
     7
100
AcDbCircle
 10
2822.442857853
 20
905.9489939810001
 30
0.0
 40
16.0
100
AcDbArc
 50
180.0
 51
270.0
  0
ARC
  5
107
330
A
100
AcDbEntity
  8
3
  6
SOLID
 62
     7
100
AcDbCircle
 10
2710.442857853
 20
905.9489939810001
 30
0.0
 40
8.0
100
AcDbArc
 50
270.0
 51
0.0
  0
LINE
  5
108
330
A
100
AcDbEntity
  8
3
  6
SOLID
 62
     7
100
AcDbLine
 10
2866.442899529001
 20
897.948793714
 30
0.0
 11
2822.442899529001
 21
897.9487947619999
 31
0.0
  0
ARC
  5
109
330
A
100
AcDbEntity
  8
3
  6
SOLID
 62
     7
100
AcDbCircle
 10
2822.442857853
 20
905.9489939810001
 30
0.0
 40
8.0
100
AcDbArc
 50
180.0
 51
270.0
  0
ARC
  5
10A
330
A
100
AcDbEntity
  8
3
  6
SOLID
 62
     7
100
AcDbCircle
 10
2710.442857853
 20
1063.948993981
 30
0.0
 40
8.0
100
AcDbArc
 50
0.0
 51
90.0
  0
LINE
  5
10B
330
A
100
AcDbEntity
  8
3
  6
SOLID
 62
     7
100
AcDbLine
 10
2806.442903481
 20
1063.948795143
 30
0.0
 11
2806.442899719
 21
905.948795143
 31
0.0
  0
LINE
  5
10C
330
A
100
AcDbEntity
  8
3
  6
SOLID
 62
     7
100
AcDbLine
 10
1976.442860552
 20
749.948775498
 30
0.0
 11
1892.442860552
 21
749.948775498
 31
0.0
  0
LINE
  5
10D
330
A
100
AcDbEntity
  8
3
  6
SOLID
 62
     7
100
AcDbLine
 10
1141.442860552
 20
889.948775498
 30
0.0
 11
1541.442860552
 21
889.948775498
 31
0.0
  0
LINE
  5
10E
330
A
100
AcDbEntity
  8
3
  6
SOLID
 62
     7
100
AcDbLine
 10
1141.442860552
 20
897.948775498
 30
0.0
 11
1541.442860552
 21
897.948775498
 31
0.0
  0
LINE
  5
10F
330
A
100
AcDbEntity
  8
1
  6
L_DASH
 62
     7
100
AcDbLine
 10
1671.442860552
 20
1089.948775498
 30
0.0
 11
1611.442860552
 21
1089.948775498
 31
0.0
  0
LINE
  5
110
330
A
100
AcDbEntity
  8
1
  6
L_DASH
 62
     7
100
AcDbLine
 10
1471.442860552
 20
1089.948775498
 30
0.0
 11
1411.442860552
 21
1089.948775498
 31
0.0
  0
LINE
  5
111
330
A
100
AcDbEntity
  8
1
  6
L_DASH
 62
     7
100
AcDbLine
 10
1671.442860552
 20
1089.948775498
 30
0.0
 11
1641.442860552
 21
1089.948775498
 31
0.0
  0
LINE
  5
112
330
A
100
AcDbEntity
  8
1
  6
L_DASH
 62
     7
100
AcDbLine
 10
1611.442860552
 20
1089.948775498
 30
0.0
 11
1641.442845293
 21
1089.948775498
 31
0.0
  0
LINE
  5
113
330
A
100
AcDbEntity
  8
1
  6
L_DASH
 62
     7
100
AcDbLine
 10
1471.442860552
 20
1089.948775498
 30
0.0
 11
1411.442860552
 21
1089.948775498
 31
0.0
  0
LINE
  5
114
330
A
100
AcDbEntity
  8
3
  6
L_DASH
 62
     7
100
AcDbLine
 10
1311.443124964
 20
1089.948873021
 30
0.0
 11
1311.443124964
 21
1069.948775498
 31
0.0
  0
LINE
  5
115
330
A
100
AcDbEntity
  8
3
  6
L_DASH
 62
     7
100
AcDbLine
 10
1311.443124964
 20
1081.948775498
 30
0.0
 11
1541.442860552
 21
1081.948775498
 31
0.0
  0
LINE
  5
116
330
A
100
AcDbEntity
  8
3
  6
L_DASH
 62
     7
100
AcDbLine
 10
1311.443124964
 20
1089.948775498
 30
0.0
 11
1541.442860552
 21
1089.948775498
 31
0.0
  0
LINE
  5
117
330
A
100
AcDbEntity
  8
1
  6
CENTER
 62
     2
100
AcDbLine
 10
1541.442860552
 20
833.273654831
 30
0.0
 11
1541.442860552
 21
1476.885584026
 31
0.0
  0
LINE
  5
118
330
A
100
AcDbEntity
  8
1
  6
SOLID
 62
     7
100
AcDbLine
 10
3011.443471765
 20
939.948192607
 30
0.0
 11
2921.443471765
 21
939.948192607
 31
0.0
  0
LWPOLYLINE
  5
119
330
A
100
AcDbEntity
  8
1
  6
SOLID
 62
     7
100
AcDbPolyline
 90
       17
 70
     0
 43
0.0
 10
2896.443471749
 20
1316.404840504
 10
2898.263107785
 20
1314.423480374
 10
2900.050380861
 20
1312.414824416
 10
2901.804852184
 20
1310.379365774
 10
2903.526091015999
 20
1308.317604174
 10
2905.213674776
 20
1306.230045795
 10
2906.867189147
 20
1304.117203154
 10
2908.486228176
 20
1301.979594973
 10
2910.070394373
 20
1299.817746055
 10
2911.619298811
 20
1297.632187153
 10
2913.132561219001
 20
1295.423454843
 10
2914.609810078
 20
1293.19209139
 10
2916.050682708
 20
1290.938644613
 10
2917.454825363
 20
1288.663667755
 10
2918.821893312
 20
1286.367719344
 10
2920.151550927
 20
1284.051363056
 10
2921.443471765
 20
1281.71516758
  0
LWPOLYLINE
  5
11A
330
A
100
AcDbEntity
  8
1
  6
SOLID
 62
     7
100
AcDbPolyline
 90
       17
 70
     0
 43
0.0
 10
2861.443471765
 20
1345.204553127
 10
2863.210868987
 20
1344.086377956
 10
2864.964161774
 20
1342.947674026
 10
2866.703094573
 20
1341.788607313
 10
2868.427413923
 20
1340.609346755
 10
2870.136868496
 20
1339.410064239
 10
2871.831209127
 20
1338.190934566
 10
2873.510188857001
 20
1336.952135431
 10
2875.173562964
 20
1335.693847398
 10
2876.821089001
 20
1334.416253869
 10
2878.452526831
 20
1333.119541062
 10
2880.067638664
 20
1331.803897979
 10
2881.666189085
 20
1330.469516384
 10
2883.247945098
 20
1329.116590771
 10
2884.812676152
 20
1327.745318337
 10
2886.360154177
 20
1326.355898953
 10
2887.890153619
 20
1324.948535136
  0
LWPOLYLINE
  5
11B
330
A
100
AcDbEntity
  8
1
  6
SOLID
 62
     7
100
AcDbPolyline
 90
      129
 70
     0
 43
0.0
 10
2668.44290343
 20
1063.197506089
 10
2666.461205571
 20
1064.510593673
 10
2664.498361888
 20
1065.849842771
 10
2662.554742523
 20
1067.215000834
 10
2660.630713995
 20
1068.605810428
 10
2658.726639128
 20
1070.022009279
 10
2656.842876985
 20
1071.463330329
 10
2654.979782795
 20
1072.929501778
 10
2653.137707892
 20
1074.420247144
 10
2651.316999647
 20
1075.935285309
 10
2649.518001399
 20
1077.474330575
 10
2647.741052395
 20
1079.037092714
 10
2645.986487724
 20
1080.623277029
 10
2644.254638253
 20
1082.232584406
 10
2642.545830567
 20
1083.864711367
 10
2640.860386904
 20
1085.519350135
 10
2639.198625097
 20
1087.196188685
 10
2637.560858513
 20
1088.894910808
 10
2635.947395995
 20
1090.615196166
 10
2634.358541802
 20
1092.356720356
 10
2632.794595552
 20
1094.119154969
 10
2631.255852167
 20
1095.902167654
 10
2629.742601816
 20
1097.70542218
 10
2628.255129861
 20
1099.528578496
 10
2626.793716801
 20
1101.3712928
 10
2625.358638224
 20
1103.233217603
 10
2623.950164749
 20
1105.11400179
 10
2622.568561981
 20
1107.013290694
 10
2621.214090454
 20
1108.930726154
 10
2619.88700559
 20
1110.86594659
 10
2618.587557642
 20
1112.818587067
 10
2617.315991656
 20
1114.788279366
 10
2616.072547416
 20
1116.774652051
 10
2614.857459406
 20
1118.777330542
 10
2613.670956762
 20
1120.795937182
 10
2612.513263228
 20
1122.830091313
 10
2611.384597116
 20
1124.879409343
 10
2610.285171266
 20
1126.943504822
 10
2609.215193002
 20
1129.021988512
 10
2608.174864095
 20
1131.114468463
 10
2607.164380725
 20
1133.220550085
 10
2606.183933445
 20
1135.339836222
 10
2605.233707143
 20
1137.47192723
 10
2604.313881008
 20
1139.616421049
 10
2603.424628496
 20
1141.772913281
 10
2602.566117299
 20
1143.940997265
 10
2601.73850931
 20
1146.120264153
 10
2600.941960597
 20
1148.310302989
 10
2600.176621367
 20
1150.510700788
 10
2599.442635946
 20
1152.721042607
 10
2598.740142744
 20
1154.940911631
 10
2598.069274236
 20
1157.169889248
 10
2597.430156929001
 20
1159.407555127
 10
2596.822911345001
 20
1161.653487301
 10
2596.247651997
 20
1163.907262242
 10
2595.704487364
 20
1166.168454943
 10
2595.193519873
 20
1168.436639
 10
2594.714845879
 20
1170.711386689
 10
2594.26855565
 20
1172.992269049
 10
2593.854733345001
 20
1175.278855963
 10
2593.473456999
 20
1177.570716235
 10
2593.124798513
 20
1179.867417679
 10
2592.808823635
 20
1182.168527193
 10
2592.525591949
 20
1184.473610844
 10
2592.275156867
 20
1186.782233952
 10
2592.057565613
 20
1189.093961166
 10
2591.872859221
 20
1191.408356552
 10
2591.721072522001
 20
1193.724983672
 10
2591.602234139
 20
1196.043405669
 10
2591.516366481001
 20
1198.363185344
 10
2591.463485741
 20
1200.683885244
 10
2591.443601892
 20
1203.005067744
 10
2591.456718682
 20
1205.326295125
 10
2591.502833639
 20
1207.647129661
 10
2591.581938066
 20
1209.967133701
 10
2591.694017046
 20
1212.285869749
 10
2591.839049444
 20
1214.602900548
 10
2592.01700791
 20
1216.917789164
 10
2592.227858886
 20
1219.230099066
 10
2592.471562610001
 20
1221.53939421
 10
2592.748073125
 20
1223.84523912
 10
2593.05733829
 20
1226.14719897
 10
2593.399299784
 20
1228.444839668
 10
2593.773893121
 20
1230.737727935
 10
2594.181047663
 20
1233.02543139
 10
2594.62068663
 20
1235.307518628
 10
2595.092727118
 20
1237.583559304
 10
2595.59708011
 20
1239.853124212
 10
2596.133650499
 20
1242.11578537
 10
2596.702337101
 20
1244.371116095
 10
2597.303032675
 20
1246.618691088
 10
2597.935623945
 20
1248.858086511
 10
2598.59999162
 20
1251.088880071
 10
2599.296010417
 20
1253.310651093
 10
2600.023549084
 20
1255.522980608
 10
2600.782470424
 20
1257.725451425
 10
2601.572631325
 20
1259.917648211
 10
2602.393882781
 20
1262.099157574
 10
2603.246069925
 20
1264.269568134
 10
2604.129032055
 20
1266.428470606
 10
2605.042602666
 20
1268.575457874
 10
2605.986609482
 20
1270.710125069
 10
2606.960874486
 20
1272.832069646
 10
2607.965213956
 20
1274.940891458
 10
2608.999438499
 20
1277.036192834
 10
2610.063353085
 20
1279.117578652
 10
2611.156757085
 20
1281.184656414
 10
2612.279444313
 20
1283.237036321
 10
2613.431203055
 20
1285.274331343
 10
2614.611816119
 20
1287.296157298
 10
2615.821060871
 20
1289.302132919
 10
2617.058709277
 20
1291.29187993
 10
2618.324527946001
 20
1293.265023112
 10
2619.618278178
 20
1295.221190379
 10
2620.939716002001
 20
1297.160012848
 10
2622.288592229
 20
1299.081124904
 10
2623.664652492
 20
1300.984164272
 10
2625.067637303
 20
1302.868772088
 10
2626.497282091
 20
1304.734592959
 10
2627.953317262
 20
1306.581275039
 10
2629.435468243
 20
1308.408470089
 10
2630.943455538
 20
1310.215833545
 10
2632.476994777
 20
1312.003024583
 10
2634.035796772
 20
1313.769706184
 10
2635.619567573
 20
1315.515545193
 10
2637.228008519
 20
1317.240212391
 10
2638.860816297
 20
1318.943382546
 10
2640.517683002
 20
1320.624734484
 10
2642.198296188
 20
1322.283951142
  0
LINE
  5
11C
330
A
100
AcDbEntity
  8
1
  6
SOLID
 62
     7
100
AcDbLine
 10
2861.443471765
 20
1449.180169876
 30
0.0
 11
2671.443471765
 21
1449.180169876
 31
0.0
  0
LINE
  5
11D
330
A
100
AcDbEntity
  8
1
  6
CENTER
 62
     7
100
AcDbLine
 10
2691.443471765
 20
1079.967454574
 30
0.0
 11
2691.443471765
 21
1071.279789344
 31
0.0
  0
LINE
  5
11E
330
A
100
AcDbEntity
  8
1
  6
SOLID
 62
     3
100
AcDbLine
 10
2591.443471765
 20
1202.758115796
 30
0.0
 11
2591.443471765
 21
1203.619821993
 31
0.0
  0
DIMENSION
  5
130
330
A
100
AcDbEntity
  8
1
  6
SOLID
 62
     3
100
AcDbDimension
280
     0
  2
*D7
 10
2591.444335938
 20
1705.107299805
 30
0.0
 11
2591.947509766
 21
1720.107299805
 31
0.0
  1
  45   
 71
     5
 42
0.0
 73
     0
 74
     0
 75
     0
  3
9
100
AcDbAlignedDimension
 13
2636.444335938
 23
1294.948608398
 33
0.0
 14
2591.444335938
 24
1203.619750977
 34
0.0
100
AcDbRotatedDimension
  0
DIMENSION
  5
140
330
A
100
AcDbEntity
  8
2
  6
SOLID
 62
     3
100
AcDbDimension
280
     0
  2
*D8
 10
1106.443359375
 20
677.5626220699999
 30
0.0
 11
1288.697998047
 21
692.5626220699999
 31
0.0
 71
     5
 42
0.0
 73
     0
 74
     0
 75
     0
  3
10
100
AcDbAlignedDimension
 13
1541.443359375
 23
833.2736816410001
 33
0.0
 14
1106.443359375
 24
749.9487304689998
 34
0.0
100
AcDbRotatedDimension
  0
DIMENSION
  5
150
330
A
100
AcDbEntity
  8
1
  6
SOLID
 62
     3
100
AcDbDimension
280
     0
  2
*D9
 10
2596.442871094
 20
586.1379394530001
 30
0.0
 11
2886.197509766
 21
601.137939453
 31
0.0
  1
  650   
 71
     5
 42
0.0
 73
     0
 74
     0
 75
     0
  3
11
100
AcDbAlignedDimension
 13
3246.442871094
 23
749.9487915039999
 33
0.0
 14
2596.442871094
 24
749.9487915039999
 34
0.0
100
AcDbRotatedDimension
  0
TEXT
  5
151
330
A
100
AcDbEntity
  8
2
  6
SOLID
 62
     3
100
AcDbText
 10
1227.738037109
 20
1713.358032227
 30
0.0
 40
35.0
  1
(Fra parentesi quote x telaio pul.%%c700)
 41
0.762752491039286
 72
     5
 11
2153.21105957
 21
1713.358032227
 31
0.0
100
AcDbText
  0
LINE
  5
152
330
A
100
AcDbEntity
  8
2
  6
SOLID
 62
     3
100
AcDbLine
 10
1195.973051915
 20
1716.981016373
 30
0.0
 11
1195.973051915
 21
1741.181017422
 31
0.0
  0
LINE
  5
153
330
A
100
AcDbEntity
  8
3
  6
SOLID
 62
     7
100
AcDbLine
 10
1141.442860552
 20
1029.948775498
 30
0.0
 11
1141.442860552
 21
889.948775498
 31
0.0
  0
LINE
  5
154
330
A
100
AcDbEntity
  8
3
  6
SOLID
 62
     7
100
AcDbLine
 10
1941.442860552
 20
1029.948775498
 30
0.0
 11
1941.442860552
 21
889.948775498
 31
0.0
  0
ARC
  5
155
330
A
100
AcDbEntity
  8
3
  6
SOLID
 62
     7
100
AcDbCircle
 10
2822.442857853
 20
1063.948993981
 30
0.0
 40
8.0
100
AcDbArc
 50
90.0
 51
180.0
  0
ARC
  5
156
330
A
100
AcDbEntity
  8
3
  6
SOLID
 62
     7
100
AcDbCircle
 10
2710.442857853
 20
1063.948993981
 30
0.0
 40
16.0
100
AcDbArc
 50
0.0
 51
90.0
  0
ARC
  5
157
330
A
100
AcDbEntity
  8
3
  6
SOLID
 62
     7
100
AcDbCircle
 10
2822.442857853
 20
1063.948993981
 30
0.0
 40
16.0
100
AcDbArc
 50
90.0
 51
180.0
  0
LINE
  5
158
330
A
100
AcDbEntity
  8
3
  6
SOLID
 62
     7
100
AcDbLine
 10
2814.442903481
 20
1063.948794953
 30
0.0
 11
2814.442899719001
 21
905.948794953
 31
0.0
  0
LINE
  5
159
330
A
100
AcDbEntity
  8
3
  6
SOLID
 62
     7
100
AcDbLine
 10
2718.442903481
 20
1063.948797238
 30
0.0
 11
2718.442899719
 21
905.9487972379999
 31
0.0
  0
LINE
  5
15A
330
A
100
AcDbEntity
  8
3
  6
SOLID
 62
     7
100
AcDbLine
 10
2866.442903862
 20
1079.948793714
 30
0.0
 11
2866.442903671
 21
1071.948793714
 31
0.0
  0
LINE
  5
15B
330
A
100
AcDbEntity
  8
3
  6
SOLID
 62
     7
100
AcDbLine
 10
2710.442903672
 20
1071.948797429
 30
0.0
 11
2666.442903672001
 21
1071.948798477
 31
0.0
  0
LINE
  5
15C
330
A
100
AcDbEntity
  8
3
  6
SOLID
 62
     7
100
AcDbLine
 10
2666.442899529
 20
897.9487984769999
 30
0.0
 11
2710.442899529
 21
897.9487974289998
 31
0.0
  0
LINE
  5
15D
330
A
100
AcDbEntity
  8
3
  6
SOLID
 62
     7
100
AcDbLine
 10
2726.442903481
 20
1063.948797048
 30
0.0
 11
2726.442899719
 21
905.9487970480001
 31
0.0
  0
LINE
  5
15E
330
A
100
AcDbEntity
  8
3
  6
SOLID
 62
     7
100
AcDbLine
 10
2822.442903672
 20
1071.948794762
 30
0.0
 11
2866.442903672
 21
1071.948793714
 31
0.0
  0
LINE
  5
15F
330
A
100
AcDbEntity
  8
3
  6
SOLID
 62
     7
100
AcDbLine
 10
2596.442902671
 20
749.948787073
 30
0.0
 11
3246.442902672
 21
749.9488022069999
 31
0.0
  0
LINE
  5
160
330
A
100
AcDbEntity
  8
1
  6
CENTER
 62
     2
100
AcDbLine
 10
2841.443471146
 20
1053.935688035
 30
0.0
 11
2841.443472492001
 21
1110.461299487
 31
0.0
  0
LINE
  5
161
330
A
100
AcDbEntity
  8
3
  6
SOLID
 62
     7
100
AcDbLine
 10
1106.442860552
 20
757.948775498
 30
0.0
 11
1106.442860552
 21
749.948775498
 31
0.0
  0
LINE
  5
162
330
A
100
AcDbEntity
  8
3
  6
SOLID
 62
     7
100
AcDbLine
 10
1206.442860552
 20
873.948775498
 30
0.0
 11
1206.442860552
 21
765.948775498
 31
0.0
  0
ARC
  5
163
330
A
100
AcDbEntity
  8
3
  6
SOLID
 62
     7
100
AcDbCircle
 10
1190.442860552
 20
765.948775498
 30
0.0
 40
16.0
100
AcDbArc
 50
270.0
 51
0.0
  0
LINE
  5
164
330
A
100
AcDbEntity
  8
3
  6
SOLID
 62
     7
100
AcDbLine
 10
1106.442860552
 20
757.948775498
 30
0.0
 11
1190.442860552
 21
757.948775498
 31
0.0
  0
LINE
  5
165
330
A
100
AcDbEntity
  8
3
  6
SOLID
 62
     7
100
AcDbLine
 10
1198.442860552
 20
873.948775498
 30
0.0
 11
1198.442860552
 21
765.948775498
 31
0.0
  0
ARC
  5
166
330
A
100
AcDbEntity
  8
3
  6
SOLID
 62
     7
100
AcDbCircle
 10
1190.442860552
 20
765.948775498
 30
0.0
 40
8.0
100
AcDbArc
 50
270.0
 51
0.0
  0
LINE
  5
167
330
A
100
AcDbEntity
  8
3
  6
SOLID
 62
     7
100
AcDbLine
 10
1106.442860552
 20
749.948775498
 30
0.0
 11
1190.442860552
 21
749.948775498
 31
0.0
  0
LINE
  5
168
330
A
100
AcDbEntity
  8
1
  6
CENTER
 62
     2
100
AcDbLine
 10
2691.443470921
 20
1044.514756365
 30
0.0
 11
2691.443472791001
 21
1123.022550048
 31
0.0
  0
LINE
  5
169
330
A
100
AcDbEntity
  8
3
  6
SOLID
 62
     7
100
AcDbLine
 10
2710.442903862
 20
1079.948797429
 30
0.0
 11
2666.442903862
 21
1079.948798477
 31
0.0
  0
LINE
  5
16A
330
A
100
AcDbEntity
  8
3
  6
CENTER
 62
     2
100
AcDbLine
 10
2766.443473015
 20
1132.443483504
 30
0.0
 11
2766.443466136
 21
843.534802751
 31
0.0
  0
LINE
  5
16B
330
A
100
AcDbEntity
  8
3
  6
SOLID
 62
     7
100
AcDbLine
 10
3246.442899338
 20
889.948802207
 30
0.0
 11
2596.442899337001
 21
889.948787073
 31
0.0
  0
LINE
  5
16C
330
A
100
AcDbEntity
  8
3
  6
SOLID
 62
     7
100
AcDbLine
 10
2866.442899528
 20
897.948793714
 30
0.0
 11
2866.442899338
 21
889.9487937139999
 31
0.0
  0
LINE
  5
16D
330
A
100
AcDbEntity
  8
3
  6
SOLID
 62
     7
100
AcDbLine
 10
2666.442899528
 20
897.9487984769999
 30
0.0
 11
2666.442899338
 21
889.9487984769999
 31
0.0
  0
LINE
  5
16E
330
A
100
AcDbEntity
  8
3
  6
SOLID
 62
     7
100
AcDbLine
 10
2866.442903862
 20
1079.948793714
 30
0.0
 11
2822.442903862
 21
1079.948794762
 31
0.0
  0
LINE
  5
16F
330
A
100
AcDbEntity
  8
3
  6
SOLID
 62
     7
100
AcDbLine
 10
2806.442900052
 20
919.9487951429999
 30
0.0
 11
2726.442900052
 21
919.9487970480001
 31
0.0
  0
LINE
  5
170
330
A
100
AcDbEntity
  8
2
  6
SOLID
 62
     3
100
AcDbLine
 10
1195.973051915
 20
1729.081016897
 30
0.0
 11
1183.873051391
 21
1729.081016897
 31
0.0
  0
DIMENSION
  5
180
330
A
100
AcDbEntity
  8
2
  6
SOLID
 62
     3
100
AcDbDimension
280
     0
  2
*D10
 10
1541.443359375
 20
677.5626220699999
 30
0.0
 11
1723.697998047
 21
692.5626220699999
 31
0.0
 71
     5
 42
0.0
 73
     0
 74
     0
 75
     0
  3
12
100
AcDbAlignedDimension
 13
1976.443359375
 23
749.9487304689998
 33
0.0
 14
1541.443359375
 24
833.2736816410001
 34
0.0
100
AcDbRotatedDimension
  0
DIMENSION
  5
190
330
A
100
AcDbEntity
  8
2
  6
SOLID
 62
     3
100
AcDbDimension
280
     0
  2
*D11
 10
1106.443359375
 20
586.1379394530001
 30
0.0
 11
1506.197998047
 21
601.137939453
 31
0.0
 71
     5
 42
0.0
 73
     0
 74
     0
 75
     0
  3
13
100
AcDbAlignedDimension
 13
1976.443359375
 23
749.9487304689998
 33
0.0
 14
1106.443359375
 24
749.9487304689998
 34
0.0
100
AcDbRotatedDimension
  0
DIMENSION
  5
1A0
330
A
100
AcDbEntity
  8
2
  6
SOLID
 62
     3
100
AcDbDimension
280
     0
  2
*D12
 10
2636.443359375
 20
1705.107299805
 30
0.0
 11
2666.197998047
 21
1720.107299805
 31
0.0
 71
     5
 42
0.0
 73
     0
 74
     0
 75
     0
  3
14
100
AcDbAlignedDimension
 13
2766.443359375
 23
1488.073242188
 33
0.0
 14
2636.443359375
 24
1294.948486328
 34
0.0
100
AcDbRotatedDimension
  0
LINE
  5
1A1
330
A
100
AcDbEntity
  8
1
  6
CENTER
 62
     2
100
AcDbLine
 10
2984.443471765001
 20
929.9481926069999
 30
0.0
 11
2984.443471765001
 21
1239.948192607
 31
0.0
  0
LINE
  5
1A2
330
A
100
AcDbEntity
  8
1
  6
CENTER
 62
     2
100
AcDbLine
 10
2966.443471765
 20
929.9481926069999
 30
0.0
 11
2966.443471765
 21
1239.948192607
 31
0.0
  0
LINE
  5
1A3
330
A
100
AcDbEntity
  8
1
  6
CENTER
 62
     2
100
AcDbLine
 10
2930.443471765
 20
1549.948192607
 30
0.0
 11
2930.443471765
 21
1239.948192607
 31
0.0
  0
LINE
  5
1A4
330
A
100
AcDbEntity
  8
1
  6
CENTER
 62
     2
100
AcDbLine
 10
2948.443471765001
 20
1549.948192607
 30
0.0
 11
2948.443471765001
 21
1239.948192607
 31
0.0
  0
LINE
  5
1A5
330
A
100
AcDbEntity
  8
1
  6
SOLID
 62
     7
100
AcDbLine
 10
2921.443471765
 20
1539.948192607
 30
0.0
 11
2921.443471765
 21
939.948192607
 31
0.0
  0
LINE
  5
1A6
330
A
100
AcDbEntity
  8
1
  6
CENTER
 62
     2
100
AcDbLine
 10
3002.443471765
 20
1549.948192607
 30
0.0
 11
3002.443471765
 21
1239.948192607
 31
0.0
  0
LINE
  5
1A7
330
A
100
AcDbEntity
  8
1
  6
CENTER
 62
     2
100
AcDbLine
 10
2984.443471765001
 20
1549.948192607
 30
0.0
 11
2984.443471765001
 21
1239.948192607
 31
0.0
  0
LINE
  5
1A8
330
A
100
AcDbEntity
  8
1
  6
CENTER
 62
     2
100
AcDbLine
 10
2966.443471765
 20
1549.948192607
 30
0.0
 11
2966.443471765
 21
1239.948192607
 31
0.0
  0
LINE
  5
1A9
330
A
100
AcDbEntity
  8
1
  6
SOLID
 62
     7
100
AcDbLine
 10
3011.443471765
 20
1539.948192607
 30
0.0
 11
3011.443471765
 21
1239.948192607
 31
0.0
  0
LINE
  5
1AA
330
A
100
AcDbEntity
  8
1
  6
SOLID
 62
     7
100
AcDbLine
 10
3011.443471765
 20
939.948192607
 30
0.0
 11
3011.443471765
 21
1239.948192607
 31
0.0
  0
LINE
  5
1AB
330
A
100
AcDbEntity
  8
1
  6
SOLID
 62
     7
100
AcDbLine
 10
2921.443471765
 20
1059.948192607
 30
0.0
 11
2921.443471765
 21
1239.948192607
 31
0.0
  0
LINE
  5
1AC
330
A
100
AcDbEntity
  8
1
  6
CENTER
 62
     2
100
AcDbLine
 10
3002.443471765
 20
929.9481926069999
 30
0.0
 11
3002.443471765
 21
1239.948192607
 31
0.0
  0
LINE
  5
1AD
330
A
100
AcDbEntity
  8
1
  6
CENTER
 62
     2
100
AcDbLine
 10
2930.443471765
 20
929.9481926069999
 30
0.0
 11
2930.443471765
 21
1239.948192607
 31
0.0
  0
LINE
  5
1AE
330
A
100
AcDbEntity
  8
1
  6
CENTER
 62
     2
100
AcDbLine
 10
2948.443471765001
 20
929.9481926069999
 30
0.0
 11
2948.443471765001
 21
1239.948192607
 31
0.0
  0
LINE
  5
1AF
330
A
100
AcDbEntity
  8
1
  6
SOLID
 62
     7
100
AcDbLine
 10
2861.443471765
 20
1394.948535136
 30
0.0
 11
2861.443471765
 21
1374.948535136
 31
0.0
  0
LINE
  5
1B0
330
A
100
AcDbEntity
  8
1
  6
SOLID
 62
     7
100
AcDbLine
 10
2921.443471765
 20
1214.948535136
 30
0.0
 11
2896.443471765
 21
1214.948535136
 31
0.0
  0
LINE
  5
1B1
330
A
100
AcDbEntity
  8
1
  6
SOLID
 62
     7
100
AcDbLine
 10
2921.443471765
 20
1264.948535136
 30
0.0
 11
2896.443471765
 21
1264.948535136
 31
0.0
  0
LINE
  5
1B2
330
A
100
AcDbEntity
  8
1
  6
SOLID
 62
     7
100
AcDbLine
 10
2671.443471765
 20
1383.423288672
 30
0.0
 11
2646.443471765
 21
1383.423288672
 31
0.0
  0
LINE
  5
1B3
330
A
100
AcDbEntity
  8
1
  6
SOLID
 62
     7
100
AcDbLine
 10
2636.443471765
 20
1184.948535136
 30
0.0
 11
2636.443471765
 21
1239.948535136
 31
0.0
  0
LINE
  5
1B4
330
A
100
AcDbEntity
  8
1
  6
SOLID
 62
     7
100
AcDbLine
 10
2636.443471765
 20
1184.948535136
 30
0.0
 11
2646.443471765
 21
1137.448535136
 31
0.0
  0
LINE
  5
1B5
330
A
100
AcDbEntity
  8
1
  6
SOLID
 62
     7
100
AcDbLine
 10
2666.443471765
 20
1097.448535136
 30
0.0
 11
2646.443471765
 21
1097.448535136
 31
0.0
  0
LINE
  5
1B6
330
A
100
AcDbEntity
  8
1
  6
SOLID
 62
     7
100
AcDbLine
 10
2656.443471765
 20
1097.448535136
 30
0.0
 11
2656.443471765
 21
1239.948535136
 31
0.0
  0
LINE
  5
1B7
330
A
100
AcDbEntity
  8
1
  6
SOLID
 62
     7
100
AcDbLine
 10
2636.443471765
 20
1294.948535136
 30
0.0
 11
2646.443471765
 21
1342.448535136
 31
0.0
  0
LINE
  5
1B8
330
A
100
AcDbEntity
  8
1
  6
SOLID
 62
     7
100
AcDbLine
 10
2646.443471765
 20
1097.448535136
 30
0.0
 11
2646.443471765
 21
1239.948535136
 31
0.0
  0
ARC
  5
1B9
330
A
100
AcDbEntity
  8
1
  6
SOLID
 62
     7
100
AcDbCircle
 10
2666.443471765
 20
1092.448535136
 30
0.0
 40
5.0
100
AcDbArc
 50
0.0
 51
90.0
  0
ARC
  5
1BA
330
A
100
AcDbEntity
  8
1
  6
SOLID
 62
     7
100
AcDbCircle
 10
2666.443471765
 20
1387.448535136
 30
0.0
 40
5.0
100
AcDbArc
 50
270.0
 51
306.384983933
  0
LINE
  5
1BB
330
A
100
AcDbEntity
  8
1
  6
SOLID
 62
     7
100
AcDbLine
 10
2636.443471765
 20
1294.948535136
 30
0.0
 11
2636.443471765
 21
1239.948535136
 31
0.0
  0
LINE
  5
1BC
330
A
100
AcDbEntity
  8
1
  6
SOLID
 62
     7
100
AcDbLine
 10
2646.443471765
 20
1382.448535136
 30
0.0
 11
2646.443471765
 21
1239.948535136
 31
0.0
  0
LINE
  5
1BD
330
A
100
AcDbEntity
  8
1
  6
SOLID
 62
     7
100
AcDbLine
 10
2666.443471765
 20
1382.448535136
 30
0.0
 11
2646.443471765
 21
1382.448535136
 31
0.0
  0
LINE
  5
1BE
330
A
100
AcDbEntity
  8
1
  6
SOLID
 62
     7
100
AcDbLine
 10
2656.443471765
 20
1382.448535136
 30
0.0
 11
2656.443471765
 21
1239.948535136
 31
0.0
  0
ARC
  5
1BF
330
A
100
AcDbEntity
  8
1
  6
SOLID
 62
     7
100
AcDbCircle
 10
2866.443471765001
 20
1149.948535136
 30
0.0
 40
5.0
100
AcDbArc
 50
90.0
 51
180.0
  0
ARC
  5
1C0
330
A
100
AcDbEntity
  8
1
  6
SOLID
 62
     7
100
AcDbCircle
 10
2866.443471765001
 20
1329.948535136
 30
0.0
 40
5.0
100
AcDbArc
 50
180.0
 51
270.0
  0
ARC
  5
1C1
330
A
100
AcDbEntity
  8
1
  6
SOLID
 62
     7
100
AcDbCircle
 10
2891.443471765001
 20
1159.948535136
 30
0.0
 40
5.0
100
AcDbArc
 50
270.0
 51
0.0
  0
ARC
  5
1C2
330
A
100
AcDbEntity
  8
1
  6
SOLID
 62
     7
100
AcDbCircle
 10
2891.443471765001
 20
1319.948535136
 30
0.0
 40
5.0
100
AcDbArc
 50
0.0
 51
90.0
  0
LINE
  5
1C3
330
A
100
AcDbEntity
  8
1
  6
SOLID
 62
     7
100
AcDbLine
 10
2891.443471765001
 20
1154.948535136
 30
0.0
 11
2866.443471765001
 21
1154.948535136
 31
0.0
  0
LINE
  5
1C4
330
A
100
AcDbEntity
  8
1
  6
SOLID
 62
     7
100
AcDbLine
 10
2891.443471765001
 20
1324.948535136
 30
0.0
 11
2866.443471765001
 21
1324.948535136
 31
0.0
  0
LINE
  5
1C5
330
A
100
AcDbEntity
  8
1
  6
SOLID
 62
     7
100
AcDbLine
 10
2896.443471765
 20
1319.948535136
 30
0.0
 11
2896.443471765
 21
1159.948535136
 31
0.0
  0
ARC
  5
1C6
330
A
100
AcDbEntity
  8
1
  6
SOLID
 62
     3
100
AcDbCircle
 10
2841.443471765
 20
1137.448550394
 30
0.0
 40
8.0
100
AcDbArc
 50
195.0
 51
155.0
  0
CIRCLE
  5
1C7
330
A
100
AcDbEntity
  8
1
  6
SOLID
 62
     7
100
AcDbCircle
 10
2841.443471765
 20
1137.448550394
 30
0.0
 40
7.0
  0
LINE
  5
1C8
330
A
100
AcDbEntity
  8
1
  6
CENTER
 62
     2
100
AcDbLine
 10
2828.370442919
 20
1137.448550394
 30
0.0
 11
2857.963401887
 21
1137.448550394
 31
0.0
  0
LINE
  5
1C9
330
A
100
AcDbEntity
  8
1
  6
CENTER
 62
     2
100
AcDbLine
 10
2841.443471765
 20
1124.924166439
 30
0.0
 11
2841.443471765
 21
1158.162634845
 31
0.0
  0
ARC
  5
1CA
330
A
100
AcDbEntity
  8
1
  6
SOLID
 62
     3
100
AcDbCircle
 10
2691.443471765
 20
1137.448550394
 30
0.0
 40
8.0
100
AcDbArc
 50
25.0
 51
345.0
  0
CIRCLE
  5
1CB
330
A
100
AcDbEntity
  8
1
  6
SOLID
 62
     7
100
AcDbCircle
 10
2691.443471765
 20
1137.448550394
 30
0.0
 40
7.0
  0
LINE
  5
1CC
330
A
100
AcDbEntity
  8
1
  6
CENTER
 62
     2
100
AcDbLine
 10
2704.516500612
 20
1137.448550394
 30
0.0
 11
2674.923541644
 21
1137.448550394
 31
0.0
  0
LINE
  5
1CD
330
A
100
AcDbEntity
  8
1
  6
CENTER
 62
     2
100
AcDbLine
 10
2691.443471765
 20
1124.924166439
 30
0.0
 11
2691.443471765
 21
1158.162634845
 31
0.0
  0
ARC
  5
1CE
330
A
100
AcDbEntity
  8
1
  6
SOLID
 62
     3
100
AcDbCircle
 10
2841.443471765
 20
1342.448519877
 30
0.0
 40
8.0
100
AcDbArc
 50
205.0
 51
165.0
  0
CIRCLE
  5
1CF
330
A
100
AcDbEntity
  8
1
  6
SOLID
 62
     7
100
AcDbCircle
 10
2841.443471765
 20
1342.448519877
 30
0.0
 40
7.0
  0
LINE
  5
1D0
330
A
100
AcDbEntity
  8
1
  6
CENTER
 62
     2
100
AcDbLine
 10
2828.370442919
 20
1342.448519877
 30
0.0
 11
2857.963401887
 21
1342.448519877
 31
0.0
  0
LINE
  5
1D1
330
A
100
AcDbEntity
  8
1
  6
CENTER
 62
     2
100
AcDbLine
 10
2841.443471765
 20
1354.972903832
 30
0.0
 11
2841.443471765
 21
1321.734435426
 31
0.0
  0
ARC
  5
1D2
330
A
100
AcDbEntity
  8
1
  6
SOLID
 62
     3
100
AcDbCircle
 10
2691.443471765
 20
1342.448519877
 30
0.0
 40
8.0
100
AcDbArc
 50
15.0
 51
335.0
  0
CIRCLE
  5
1D3
330
A
100
AcDbEntity
  8
1
  6
SOLID
 62
     7
100
AcDbCircle
 10
2691.443471765
 20
1342.448519877
 30
0.0
 40
7.0
  0
LINE
  5
1D4
330
A
100
AcDbEntity
  8
1
  6
CENTER
 62
     2
100
AcDbLine
 10
2704.516500612
 20
1342.448519877
 30
0.0
 11
2674.923541644
 21
1342.448519877
 31
0.0
  0
LINE
  5
1D5
330
A
100
AcDbEntity
  8
1
  6
CENTER
 62
     2
100
AcDbLine
 10
2691.443471765
 20
1354.972903832
 30
0.0
 11
2691.443471765
 21
1321.734435426
 31
0.0
  0
LINE
  5
1D6
330
A
100
AcDbEntity
  8
1
  6
SOLID
 62
     7
100
AcDbLine
 10
2861.443471765
 20
1109.948535136
 30
0.0
 11
2671.443471765
 21
1109.948535136
 31
0.0
  0
LINE
  5
1D7
330
A
100
AcDbEntity
  8
1
  6
SOLID
 62
     7
100
AcDbLine
 10
2861.443471765
 20
1309.948535136
 30
0.0
 11
2671.443471765
 21
1309.948535136
 31
0.0
  0
LINE
  5
1D8
330
A
100
AcDbEntity
  8
1
  6
SOLID
 62
     7
100
AcDbLine
 10
2861.443471765
 20
1369.948535136
 30
0.0
 11
2671.443471765
 21
1369.948535136
 31
0.0
  0
LINE
  5
1D9
330
A
100
AcDbEntity
  8
1
  6
SOLID
 62
     7
100
AcDbLine
 10
2861.442903863
 20
1079.948796095
 30
0.0
 11
2671.442903863
 21
1079.948796095
 31
0.0
  0
LINE
  5
1DA
330
A
100
AcDbEntity
  8
1
  6
SOLID
 62
     7
100
AcDbLine
 10
2671.443471765
 20
1449.180169876
 30
0.0
 11
2671.443471765
 21
1079.948799548
 31
0.0
  0
LINE
  5
1DB
330
A
100
AcDbEntity
  8
1
  6
SOLID
 62
     7
100
AcDbLine
 10
2861.443471765
 20
1449.180169876
 30
0.0
 11
2861.443471765
 21
1079.948799548
 31
0.0
  0
LINE
  5
1DC
330
A
100
AcDbEntity
  8
1
  6
CENTER
 62
     2
100
AcDbLine
 10
2766.443471765001
 20
1194.891146561
 30
0.0
 11
2766.443471765001
 21
1038.567327269
 31
0.0
  0
LINE
  5
1DD
330
A
100
AcDbEntity
  8
1
  6
SOLID
 62
     7
100
AcDbLine
 10
2861.443471765
 20
1164.948535136
 30
0.0
 11
2671.443471765
 21
1164.948535136
 31
0.0
  0
LINE
  5
1DE
330
A
100
AcDbEntity
  8
1
  6
SOLID
 62
     7
100
AcDbLine
 10
2861.443471765
 20
1369.948799548
 30
0.0
 11
2671.443471765
 21
1369.948799548
 31
0.0
  0
LINE
  5
1DF
330
A
100
AcDbEntity
  8
1
  6
CENTER
 62
     2
100
AcDbLine
 10
3064.809001494
 20
1239.948192607
 30
0.0
 11
2576.790891038
 21
1239.948192607
 31
0.0
  0
LINE
  5
1E0
330
A
100
AcDbEntity
  8
1
  6
CENTER
 62
     2
100
AcDbLine
 10
2766.443471765001
 20
1194.891146561
 30
0.0
 11
2766.443471765001
 21
1488.07318464
 31
0.0
  0
LINE
  5
1E1
330
A
100
AcDbEntity
  8
3
  6
SOLID
 62
     7
100
AcDbLine
 10
1931.442860552
 20
1039.948775498
 30
0.0
 11
1941.442860552
 21
1029.948775498
 31
0.0
  0
LINE
  5
1E2
330
A
100
AcDbEntity
  8
3
  6
SOLID
 62
     7
100
AcDbLine
 10
1151.442860552
 20
1039.948775498
 30
0.0
 11
1141.442860552
 21
1029.948775498
 31
0.0
  0
LINE
  5
1E3
330
A
100
AcDbEntity
  8
3
  6
CENTER
 62
     2
100
AcDbLine
 10
1931.442860552
 20
787.0091672489999
 30
0.0
 11
1931.442860552
 21
737.215629141
 31
0.0
  0
LINE
  5
1E4
330
A
100
AcDbEntity
  8
3
  6
SOLID
 62
     7
100
AcDbLine
 10
1878.240315386
 20
889.948775498
 30
0.0
 11
1878.528643642
 21
881.8477987160001
 31
0.0
  0
INSERT
  5
20F
330
A
100
AcDbEntity
  8
0
100
AcDbBlockReference
  2
*H1313
 10
0.0
 20
0.0
 30
0.0
  0
INSERT
  5
23A
330
A
100
AcDbEntity
  8
0
100
AcDbBlockReference
  2
*H1414
 10
0.0
 20
0.0
 30
0.0
  0
LINE
  5
23B
330
A
100
AcDbEntity
  8
3
  6
SOLID
 62
     7
100
AcDbLine
 10
1204.645405718
 20
889.948775498
 30
0.0
 11
1204.357077462
 21
881.8477987160001
 31
0.0
  0
INSERT
  5
251
330
A
100
AcDbEntity
  8
0
100
AcDbBlockReference
  2
*H1515
 10
0.0
 20
0.0
 30
0.0
  0
INSERT
  5
25E
330
A
100
AcDbEntity
  8
0
100
AcDbBlockReference
  2
*H1616
 10
0.0
 20
0.0
 30
0.0
  0
LINE
  5
25F
330
A
100
AcDbEntity
  8
3
  6
SOLID
 62
     7
100
AcDbLine
 10
1941.442860552
 20
889.948775498
 30
0.0
 11
1936.442860552
 21
884.948775498
 31
0.0
  0
LINE
  5
260
330
A
100
AcDbEntity
  8
3
  6
SOLID
 62
     7
100
AcDbLine
 10
1146.442860552
 20
884.948775498
 30
0.0
 11
1141.442860552
 21
889.948775498
 31
0.0
  0
LINE
  5
261
330
A
100
AcDbEntity
  8
3
  6
CENTER
 62
     2
100
AcDbLine
 10
1151.442860552
 20
787.0091672489999
 30
0.0
 11
1151.442860552
 21
737.215629141
 31
0.0
  0
LINE
  5
262
330
A
100
AcDbEntity
  8
1
  6
SOLID
 62
     7
100
AcDbLine
 10
2846.443471765
 20
1494.958866061
 30
0.0
 11
2846.443471765
 21
1449.180169876
 31
0.0
  0
LINE
  5
263
330
A
100
AcDbEntity
  8
1
  6
SOLID
 62
     7
100
AcDbLine
 10
2686.443471765
 20
1494.958866061
 30
0.0
 11
2686.443471765
 21
1449.180169876
 31
0.0
  0
LINE
  5
264
330
A
100
AcDbEntity
  8
1
  6
SOLID
 62
     7
100
AcDbLine
 10
2771.443471825
 20
1617.143917601
 30
0.0
 11
2770.943471765
 21
1617.643917541
 31
0.0
  0
LINE
  5
265
330
A
100
AcDbEntity
  8
50
  6
SOLID
 62
     7
100
AcDbLine
 10
1744.181646231
 20
1351.798753415
 30
0.0
 11
1955.719944384
 21
1295.117250785
 31
0.0
  0
LINE
  5
266
330
A
100
AcDbEntity
  8
50
  6
SOLID
 62
     7
100
AcDbLine
 10
1720.887801017
 20
1264.865464192
 30
0.0
 11
1932.426230325
 21
1208.183926419
 31
0.0
  0
LINE
  5
267
330
A
100
AcDbEntity
  8
50
  6
SOLID
 62
     7
100
AcDbLine
 10
2000.335498799
 20
1434.949291232
 30
0.0
 11
2000.606527702
 21
1433.746589548
 31
0.0
  0
LINE
  5
268
330
A
100
AcDbEntity
  8
50
  6
SOLID
 62
     7
100
AcDbLine
 10
1999.380177878
 20
1436.027218969
 30
0.0
 11
2000.335498799
 21
1434.949291232
 31
0.0
  0
LINE
  5
269
330
A
100
AcDbEntity
  8
50
  6
SOLID
 62
     7
100
AcDbLine
 10
1997.753590671
 20
1437.075459657999
 30
0.0
 11
1987.835712987
 21
1439.732948242
 31
0.0
  0
LINE
  5
26A
330
A
100
AcDbEntity
  8
50
  6
SOLID
 62
     7
100
AcDbLine
 10
1997.753590671
 20
1437.075459657999
 30
0.0
 11
1999.380177878
 21
1436.027218969
 31
0.0
  0
LINE
  5
26B
330
A
100
AcDbEntity
  8
50
  6
SOLID
 62
     7
100
AcDbLine
 10
2003.373100079
 20
1424.011656383
 30
0.0
 11
1998.380413354
 21
1425.349442759
 31
0.0
  0
ARC
  5
26C
330
A
100
AcDbEntity
  8
50
  6
SOLID
 62
     7
100
AcDbCircle
 10
1964.24402324
 20
1422.243062344
 30
0.0
 40
39.169025762
100
AcDbArc
 50
327.412051068
 51
2.587948931999999
  0
LINE
  5
26D
330
A
100
AcDbEntity
  8
50
  6
SOLID
 62
     7
100
AcDbLine
 10
1997.483447347
 20
1394.95678763
 30
0.0
 11
2006.673346281
 21
1429.253957367
 31
0.0
  0
LINE
  5
26E
330
A
100
AcDbEntity
  8
50
  6
SOLID
 62
     7
100
AcDbLine
 10
2006.436399723
 20
1435.444046295
 30
0.0
 11
2001.443712999
 21
1436.781832671
 31
0.0
  0
ARC
  5
26F
330
A
100
AcDbEntity
  8
50
  6
SOLID
 62
     7
100
AcDbCircle
 10
1945.40847023
 20
1427.290035971
 30
0.0
 40
39.169025762
100
AcDbArc
 50
327.412051068
 51
2.587948931999999
  0
ARC
  5
270
330
A
100
AcDbEntity
  8
50
  6
SOLID
 62
     7
100
AcDbCircle
 10
1977.715976235
 20
1437.013063695
 30
0.0
 40
10.47887608
100
AcDbArc
 50
310.615761582
 51
19.384238418
  0
LINE
  5
271
330
A
100
AcDbEntity
  8
50
  6
SOLID
 62
     7
100
AcDbLine
 10
1920.779358782
 20
1164.717251569
 30
0.0
 11
1944.073092957
 21
1251.650609509
 31
0.0
  0
LINE
  5
272
330
A
100
AcDbEntity
  8
50
  6
SOLID
 62
     7
100
AcDbLine
 10
1987.600846713
 20
1440.491019923
 30
0.0
 11
1981.642234162
 21
1442.087625344
 31
0.0
  0
ARC
  5
273
330
A
100
AcDbEntity
  8
50
  6
SOLID
 62
     7
100
AcDbCircle
 10
1996.551529245
 20
1431.966090068
 30
0.0
 40
10.47887608
100
AcDbArc
 50
310.615761582
 51
19.384238418
  0
LINE
  5
274
330
A
100
AcDbEntity
  8
50
  6
SOLID
 62
     7
100
AcDbLine
 10
2001.443712999
 20
1436.781832671
 30
0.0
 11
1989.190514421
 21
1391.052273021
 31
0.0
  0
LINE
  5
275
330
A
100
AcDbEntity
  8
50
  6
SOLID
 62
     7
100
AcDbLine
 10
1978.647894337
 20
1400.003761257
 30
0.0
 11
1987.837793271
 21
1434.300930995
 31
0.0
  0
LINE
  5
276
330
A
100
AcDbEntity
  8
50
  6
SOLID
 62
     7
100
AcDbLine
 10
1984.537547068
 20
1429.05863001
 30
0.0
 11
1979.544860344
 21
1430.396416386
 31
0.0
  0
LINE
  5
277
330
A
100
AcDbEntity
  8
50
  6
SOLID
 62
     7
100
AcDbLine
 10
2000.622880696
 20
1433.718444812
 30
0.0
 11
1988.194792252
 21
1437.048542664
 31
0.0
  0
LINE
  5
278
330
A
100
AcDbEntity
  8
50
  6
SOLID
 62
     7
100
AcDbLine
 10
1982.608159989
 20
1441.828806298
 30
0.0
 11
1970.35496141
 21
1396.099246648
 31
0.0
  0
LINE
  5
279
330
A
100
AcDbEntity
  8
50
  6
CENTER
 62
     7
100
AcDbLine
 10
1963.451204405
 20
1422.45540629
 30
0.0
 11
2006.716626574
 21
1410.862471359
 31
0.0
  0
ARC
  5
27A
330
A
100
AcDbEntity
  8
50
  6
SOLID
 62
     7
100
AcDbCircle
 10
1982.124788363
 20
1451.615948749
 30
0.0
 40
2.0
100
AcDbArc
 50
345.0
 51
74.999993162
  0
LINE
  5
27B
330
A
100
AcDbEntity
  8
50
  6
SOLID
 62
     7
100
AcDbLine
 10
1982.642426684
 20
1453.54780034
 30
0.0
 11
1830.026151011
 21
1494.441227679
 31
0.0
  0
LINE
  5
27C
330
A
100
AcDbEntity
  8
50
  6
SOLID
 62
     7
100
AcDbLine
 10
1984.056640016
 20
1451.098310659
 30
0.0
 11
1966.974582977
 21
1387.347205893
 31
0.0
  0
LINE
  5
27D
330
A
100
AcDbEntity
  8
50
  6
SOLID
 62
     7
100
AcDbLine
 10
1997.246500789
 20
1401.146876558
 30
0.0
 11
1992.253814065
 21
1402.484662934
 31
0.0
  0
ARC
  5
27E
330
A
100
AcDbEntity
  8
50
  6
SOLID
 62
     7
100
AcDbCircle
 10
1987.361630311
 20
1397.66892033
 30
0.0
 40
10.47887608
100
AcDbArc
 50
310.615761582
 51
19.384238418
  0
ARC
  5
27F
330
A
100
AcDbEntity
  8
50
  6
SOLID
 62
     7
100
AcDbCircle
 10
1968.526077301
 20
1402.715893958
 30
0.0
 40
10.47887608
100
AcDbArc
 50
310.615761582
 51
19.384238418
  0
LINE
  5
280
330
A
100
AcDbEntity
  8
50
  6
SOLID
 62
     7
100
AcDbLine
 10
1978.410947779
 20
1406.193850185
 30
0.0
 11
1973.418261055
 21
1407.531636561
 31
0.0
  0
ARC
  5
281
330
A
100
AcDbEntity
  8
50
  6
SOLID
 62
     7
100
AcDbCircle
 10
1829.50851269
 20
1492.509376088
 30
0.0
 40
2.0
100
AcDbArc
 50
74.999993162
 51
165.0
  0
LINE
  5
282
330
A
100
AcDbEntity
  8
50
  6
SOLID
 62
     7
100
AcDbLine
 10
1827.576661037
 20
1493.027014178
 30
0.0
 11
1810.494604122
 21
1429.275909874
 31
0.0
  0
LINE
  5
283
330
A
100
AcDbEntity
  8
50
  6
SOLID
 62
     7
100
AcDbLine
 10
1967.492221068
 20
1389.279057546
 30
0.0
 11
1811.012242212
 21
1431.207761526
 31
0.0
  0
LINE
  5
284
330
A
100
AcDbEntity
  8
50
  6
CENTER
 62
     7
100
AcDbLine
 10
1892.037351591
 20
1420.637618699
 30
0.0
 11
1887.04289728
 21
1401.998061455
 31
0.0
  0
ARC
  5
285
330
A
100
AcDbEntity
  8
50
  6
SOLID
 62
     7
100
AcDbCircle
 10
1889.25223164
 20
1410.243409536
 30
0.0
 40
5.0
100
AcDbArc
 50
345.0
 51
165.0
  0
LINE
  5
286
330
A
100
AcDbEntity
  8
50
  6
SOLID
 62
     7
100
AcDbLine
 10
1989.190514421
 20
1391.052273021
 30
0.0
 11
1994.183201145
 21
1389.714486645
 31
0.0
  0
LINE
  5
287
330
A
100
AcDbEntity
  8
50
  6
SOLID
 62
     7
100
AcDbLine
 10
1969.389035584
 20
1396.358065693
 30
0.0
 11
1975.347648135
 21
1394.761460272
 31
0.0
  0
LINE
  5
288
330
A
100
AcDbEntity
  8
50
  6
SOLID
 62
     7
100
AcDbLine
 10
1990.011299847
 20
1394.115485934
 30
0.0
 11
1977.583163474
 21
1397.445596628
 31
0.0
  0
LINE
  5
289
330
A
100
AcDbEntity
  8
50
  6
SOLID
 62
     7
100
AcDbLine
 10
1989.14699788
 20
1393.193237341
 30
0.0
 11
1989.983066637
 21
1394.099293102
 31
0.0
  0
LINE
  5
28A
330
A
100
AcDbEntity
  8
50
  6
SOLID
 62
     7
100
AcDbLine
 10
1985.847915638
 20
1392.642875536
 30
0.0
 11
1975.93003732
 21
1395.300361753
 31
0.0
  0
LINE
  5
28B
330
A
100
AcDbEntity
  8
50
  6
SOLID
 62
     7
100
AcDbLine
 10
1987.780701825
 20
1392.737384998
 30
0.0
 11
1989.14699788
 21
1393.193237341
 31
0.0
  0
LINE
  5
28C
330
A
100
AcDbEntity
  8
50
  6
SOLID
 62
     7
100
AcDbLine
 10
1985.847915638
 20
1392.642875536
 30
0.0
 11
1987.780701825
 21
1392.737384998
 31
0.0
  0
LINE
  5
28D
330
A
100
AcDbEntity
  8
50
  6
SOLID
 62
     7
100
AcDbLine
 10
2074.096766634
 20
1439.395081028
 30
0.0
 11
2050.026623552
 21
1349.56410554
 31
0.0
  0
LINE
  5
28E
330
A
100
AcDbEntity
  8
50
  6
SOLID
 62
     7
100
AcDbLine
 10
2107.904288461
 20
1430.336854221
 30
0.0
 11
2083.834026998
 21
1340.505436927
 31
0.0
  0
ARC
  5
28F
330
A
100
AcDbEntity
  8
50
  6
SOLID
 62
     7
100
AcDbCircle
 10
2286.612689296
 20
1425.001873376
 30
0.0
 40
14.5
100
AcDbArc
 50
-100.397689079
 51
-15.000003419
  0
LINE
  5
290
330
A
100
AcDbEntity
  8
50
  6
SOLID
 62
     7
100
AcDbLine
 10
2276.440538656
 20
1435.335181517
 30
0.0
 11
2274.538614444
 21
1428.237105419
 31
0.0
  0
ARC
  5
291
330
A
100
AcDbEntity
  8
50
  6
SOLID
 62
     7
100
AcDbCircle
 10
2286.612689296
 20
1425.001873376
 30
0.0
 40
14.5
100
AcDbArc
 50
195.450310603
 51
250.397682242
  0
ARC
  5
292
330
A
100
AcDbEntity
  8
50
  6
SOLID
 62
     7
100
AcDbCircle
 10
2290.59850348
 20
1439.877130869
 30
0.0
 40
1.5
100
AcDbArc
 50
204.136406377
 51
305.863586786
  0
ARC
  5
293
330
A
100
AcDbEntity
  8
50
  6
SOLID
 62
     7
100
AcDbCircle
 10
2286.612689296
 20
1425.001873376
 30
0.0
 40
14.5
100
AcDbArc
 50
344.999996581
 51
70.397682242
  0
ARC
  5
294
330
A
100
AcDbEntity
  8
50
  6
SOLID
 62
     7
100
AcDbCircle
 10
2286.612689296
 20
1425.001873376
 30
0.0
 40
14.5
100
AcDbArc
 50
79.60231092099999
 51
134.54968256
  0
LINE
  5
295
330
A
100
AcDbEntity
  8
50
  6
SOLID
 62
     7
100
AcDbLine
 10
2272.636690224
 20
1421.139029294
 30
0.0
 11
2274.538614437
 21
1428.237105392
 31
0.0
  0
ARC
  5
296
330
A
100
AcDbEntity
  8
50
  6
SOLID
 62
     7
100
AcDbCircle
 10
2143.91575799
 20
1379.276227667
 30
0.0
 40
50.0
100
AcDbArc
 50
40.20997807799999
 51
109.790015085
  0
LINE
  5
297
330
A
100
AcDbEntity
  8
50
  6
SOLID
 62
     7
100
AcDbLine
 10
2175.142421031
 20
1447.519497737
 30
0.0
 11
2150.14909672
 21
1454.2164404
 31
0.0
  0
LINE
  5
298
330
A
100
AcDbEntity
  8
50
  6
SOLID
 62
     7
100
AcDbLine
 10
2089.172041188
 20
1442.085441252
 30
0.0
 11
2100.046753977
 21
1439.171570047
 31
0.0
  0
ARC
  5
299
330
A
100
AcDbEntity
  8
50
  6
SOLID
 62
     7
100
AcDbCircle
 10
2088.312091077
 20
1438.876061608
 30
0.0
 40
3.322595834999999
100
AcDbArc
 50
40.616100707
 51
109.383884826
  0
LINE
  5
29A
330
A
100
AcDbEntity
  8
50
  6
SOLID
 62
     7
100
AcDbLine
 10
2090.834235596
 20
1441.039026711
 30
0.0
 11
2089.560988258
 21
1436.287204089
 31
0.0
  0
ARC
  5
29B
330
A
100
AcDbEntity
  8
50
  6
SOLID
 62
     7
100
AcDbCircle
 10
2091.39498191
 20
1428.632143002
 30
0.0
 40
12.419556618
100
AcDbArc
 50
57.412197509
 51
92.58780328299998
  0
LINE
  5
29C
330
A
100
AcDbEntity
  8
50
  6
SOLID
 62
     7
100
AcDbLine
 10
2098.084044136
 20
1439.096445904
 30
0.0
 11
2096.810796798
 21
1434.344623282
 31
0.0
  0
ARC
  5
29D
330
A
100
AcDbEntity
  8
50
  6
SOLID
 62
     7
100
AcDbCircle
 10
2099.186803865
 20
1435.962190402
 30
0.0
 40
3.322595834999999
100
AcDbArc
 50
40.616100707
 51
109.383884826
  0
LINE
  5
29E
330
A
100
AcDbEntity
  8
50
  6
SOLID
 62
     7
100
AcDbLine
 10
2100.435701065
 20
1433.373332869
 30
0.0
 11
2101.708948403
 21
1438.125155491
 31
0.0
  0
LINE
  5
29F
330
A
100
AcDbEntity
  8
50
  6
SOLID
 62
     7
100
AcDbLine
 10
2085.936083986
 20
1437.258494483
 30
0.0
 11
2100.435701037
 21
1433.373332877
 31
0.0
  0
LINE
  5
2A0
330
A
100
AcDbEntity
  8
50
  6
SOLID
 62
     7
100
AcDbLine
 10
2087.209331326
 20
1442.010317114
 30
0.0
 11
2085.936083988
 21
1437.258494493
 31
0.0
  0
LINE
  5
2A1
330
A
100
AcDbEntity
  8
1
  6
L_DASH
 62
     7
100
AcDbLine
 10
1386.443121593
 20
1159.948775498
 30
0.0
 11
1386.443121593
 21
1289.948775498
 31
0.0
  0
ARC
  5
2A2
330
A
100
AcDbEntity
  8
1
  6
L_DASH
 62
     7
100
AcDbCircle
 10
1381.443121593
 20
1289.948775498
 30
0.0
 40
5.0
100
AcDbArc
 50
0.0
 51
90.0
  0
LINE
  5
2A3
330
A
100
AcDbEntity
  8
1
  6
L_DASH
 62
     7
100
AcDbLine
 10
1381.443121593
 20
1294.948775498
 30
0.0
 11
1381.443121593
 21
1354.948775498
 31
0.0
  0
LINE
  5
2A4
330
A
100
AcDbEntity
  8
1
  6
CENTER
 62
     2
100
AcDbLine
 10
1438.942872439
 20
1141.403694573
 30
0.0
 11
1438.942872439
 21
1084.229237654
 31
0.0
  0
LINE
  5
2A5
330
A
100
AcDbEntity
  8
1
  6
CENTER
 62
     2
100
AcDbLine
 10
1432.898022947
 20
1327.448791577
 30
0.0
 11
1375.723566028
 21
1327.448791577
 31
0.0
  0
LINE
  5
2A6
330
A
100
AcDbEntity
  8
1
  6
L_DASH
 62
     7
100
AcDbLine
 10
1424.443103872
 20
1320.448791577
 30
0.0
 11
1428.484555756
 21
1327.448791577
 31
0.0
  0
LINE
  5
2A7
330
A
100
AcDbEntity
  8
1
  6
SOLID
 62
     7
100
AcDbLine
 10
1424.443103872
 20
1334.448791577
 30
0.0
 11
1428.484555756
 21
1327.448791577
 31
0.0
  0
LINE
  5
2A8
330
A
100
AcDbEntity
  8
1
  6
L_DASH
 62
     7
100
AcDbLine
 10
1424.443103872
 20
1320.448791577
 30
0.0
 11
1424.443103872
 21
1334.448791577
 31
0.0
  0
LINE
  5
2A9
330
A
100
AcDbEntity
  8
1
  6
L_DASH
 62
     3
100
AcDbLine
 10
1416.443103872
 20
1319.448791577
 30
0.0
 11
1416.443103872
 21
1335.448791577
 31
0.0
  0
LINE
  5
2AA
330
A
100
AcDbEntity
  8
1
  6
L_DASH
 62
     7
100
AcDbLine
 10
1424.443103872
 20
1320.448791577
 30
0.0
 11
1381.443103872
 21
1320.448791577
 31
0.0
  0
LINE
  5
2AB
330
A
100
AcDbEntity
  8
1
  6
L_DASH
 62
     7
100
AcDbLine
 10
1424.443103872
 20
1334.448791577
 30
0.0
 11
1381.443103872
 21
1334.448791577
 31
0.0
  0
LINE
  5
2AC
330
A
100
AcDbEntity
  8
1
  6
L_DASH
 62
     3
100
AcDbLine
 10
1416.443103872
 20
1335.448791577
 30
0.0
 11
1381.443103872
 21
1335.448791577
 31
0.0
  0
LINE
  5
2AD
330
A
100
AcDbEntity
  8
1
  6
L_DASH
 62
     3
100
AcDbLine
 10
1416.443103872
 20
1319.448791577
 30
0.0
 11
1381.443103872
 21
1319.448791577
 31
0.0
  0
LINE
  5
2AE
330
A
100
AcDbEntity
  8
1
  6
CENTER
 62
     2
100
AcDbLine
 10
1643.942841922
 20
1141.403694573
 30
0.0
 11
1643.942841922
 21
1084.229237654
 31
0.0
  0
LINE
  5
2AF
330
A
100
AcDbEntity
  8
1
  6
L_DASH
 62
     7
100
AcDbLine
 10
1650.942841922
 20
1132.948775498
 30
0.0
 11
1643.942841922
 21
1136.990227383
 31
0.0
  0
LINE
  5
2B0
330
A
100
AcDbEntity
  8
1
  6
L_DASH
 62
     7
100
AcDbLine
 10
1636.942841922
 20
1132.948775498
 30
0.0
 11
1643.942841922
 21
1136.990227383
 31
0.0
  0
LINE
  5
2B1
330
A
100
AcDbEntity
  8
1
  6
L_DASH
 62
     7
100
AcDbLine
 10
1650.942841922
 20
1132.948775498
 30
0.0
 11
1636.942841922
 21
1132.948775498
 31
0.0
  0
LINE
  5
2B2
330
A
100
AcDbEntity
  8
1
  6
L_DASH
 62
     3
100
AcDbLine
 10
1651.942841922
 20
1124.948775498
 30
0.0
 11
1635.942841922
 21
1124.948775498
 31
0.0
  0
LINE
  5
2B3
330
A
100
AcDbEntity
  8
1
  6
L_DASH
 62
     7
100
AcDbLine
 10
1650.942841922
 20
1132.948775498
 30
0.0
 11
1650.942841922
 21
1089.948775498
 31
0.0
  0
LINE
  5
2B4
330
A
100
AcDbEntity
  8
1
  6
L_DASH
 62
     7
100
AcDbLine
 10
1636.942841922
 20
1132.948775498
 30
0.0
 11
1636.942841922
 21
1089.948775498
 31
0.0
  0
LINE
  5
2B5
330
A
100
AcDbEntity
  8
1
  6
L_DASH
 62
     3
100
AcDbLine
 10
1635.942841922
 20
1124.948775498
 30
0.0
 11
1635.942841922
 21
1089.948775498
 31
0.0
  0
LINE
  5
2B6
330
A
100
AcDbEntity
  8
1
  6
L_DASH
 62
     3
100
AcDbLine
 10
1651.942841922
 20
1124.948775498
 30
0.0
 11
1651.942841922
 21
1089.948775498
 31
0.0
  0
LINE
  5
2B7
330
A
100
AcDbEntity
  8
1
  6
CENTER
 62
     2
100
AcDbLine
 10
1438.942860552
 20
1393.513569049
 30
0.0
 11
1438.942860552
 21
1450.688025967
 31
0.0
  0
LINE
  5
2B8
330
A
100
AcDbEntity
  8
1
  6
L_DASH
 62
     7
100
AcDbLine
 10
1431.942860552
 20
1401.968488123
 30
0.0
 11
1438.942860552
 21
1397.927036239
 31
0.0
  0
LINE
  5
2B9
330
A
100
AcDbEntity
  8
1
  6
L_DASH
 62
     7
100
AcDbLine
 10
1445.942860552
 20
1401.968488123
 30
0.0
 11
1438.942860552
 21
1397.927036239
 31
0.0
  0
LINE
  5
2BA
330
A
100
AcDbEntity
  8
1
  6
L_DASH
 62
     7
100
AcDbLine
 10
1431.942860552
 20
1401.968488123
 30
0.0
 11
1445.942860552
 21
1401.968488123
 31
0.0
  0
LINE
  5
2BB
330
A
100
AcDbEntity
  8
1
  6
L_DASH
 62
     3
100
AcDbLine
 10
1430.942860552
 20
1409.968488123
 30
0.0
 11
1446.942860552
 21
1409.968488123
 31
0.0
  0
LINE
  5
2BC
330
A
100
AcDbEntity
  8
1
  6
L_DASH
 62
     7
100
AcDbLine
 10
1431.942860552
 20
1401.968488123
 30
0.0
 11
1431.942860552
 21
1444.968488123
 31
0.0
  0
LINE
  5
2BD
330
A
100
AcDbEntity
  8
1
  6
L_DASH
 62
     7
100
AcDbLine
 10
1445.942860552
 20
1401.968488123
 30
0.0
 11
1445.942860552
 21
1444.968488123
 31
0.0
  0
LINE
  5
2BE
330
A
100
AcDbEntity
  8
1
  6
L_DASH
 62
     3
100
AcDbLine
 10
1446.942860552
 20
1409.968488123
 30
0.0
 11
1446.942860552
 21
1444.968488123
 31
0.0
  0
LINE
  5
2BF
330
A
100
AcDbEntity
  8
1
  6
L_DASH
 62
     3
100
AcDbLine
 10
1430.942860552
 20
1409.968488123
 30
0.0
 11
1430.942860552
 21
1444.968488123
 31
0.0
  0
LINE
  5
2C0
330
A
100
AcDbEntity
  8
1
  6
CENTER
 62
     2
100
AcDbLine
 10
1643.942845293
 20
1393.513569049
 30
0.0
 11
1643.942845293
 21
1450.688025967
 31
0.0
  0
LINE
  5
2C1
330
A
100
AcDbEntity
  8
1
  6
L_DASH
 62
     7
100
AcDbLine
 10
1636.942845293
 20
1401.968488123
 30
0.0
 11
1643.942845293
 21
1397.927036239
 31
0.0
  0
LINE
  5
2C2
330
A
100
AcDbEntity
  8
1
  6
L_DASH
 62
     7
100
AcDbLine
 10
1650.942845293
 20
1401.968488123
 30
0.0
 11
1643.942845293
 21
1397.927036239
 31
0.0
  0
LINE
  5
2C3
330
A
100
AcDbEntity
  8
1
  6
L_DASH
 62
     7
100
AcDbLine
 10
1636.942845293
 20
1401.968488123
 30
0.0
 11
1650.942845293
 21
1401.968488123
 31
0.0
  0
LINE
  5
2C4
330
A
100
AcDbEntity
  8
1
  6
L_DASH
 62
     3
100
AcDbLine
 10
1635.942845293
 20
1409.968488123
 30
0.0
 11
1651.942845293
 21
1409.968488123
 31
0.0
  0
LINE
  5
2C5
330
A
100
AcDbEntity
  8
1
  6
L_DASH
 62
     7
100
AcDbLine
 10
1636.942845293
 20
1401.968488123
 30
0.0
 11
1636.942845293
 21
1444.968488123
 31
0.0
  0
LINE
  5
2C6
330
A
100
AcDbEntity
  8
1
  6
L_DASH
 62
     7
100
AcDbLine
 10
1650.942845293
 20
1401.968488123
 30
0.0
 11
1650.942845293
 21
1444.968488123
 31
0.0
  0
LINE
  5
2C7
330
A
100
AcDbEntity
  8
1
  6
L_DASH
 62
     3
100
AcDbLine
 10
1651.942845293
 20
1409.968488123
 30
0.0
 11
1651.942845293
 21
1444.968488123
 31
0.0
  0
LINE
  5
2C8
330
A
100
AcDbEntity
  8
1
  6
L_DASH
 62
     3
100
AcDbLine
 10
1635.942845293
 20
1409.968488123
 30
0.0
 11
1635.942845293
 21
1444.968488123
 31
0.0
  0
LINE
  5
2C9
330
A
100
AcDbEntity
  8
1
  6
CENTER
 62
     2
100
AcDbLine
 10
1432.898022947
 20
1122.448791577
 30
0.0
 11
1375.723566028
 21
1122.448791577
 31
0.0
  0
LINE
  5
2CA
330
A
100
AcDbEntity
  8
1
  6
L_DASH
 62
     7
100
AcDbLine
 10
1424.443103872
 20
1115.448791577
 30
0.0
 11
1428.484555756
 21
1122.448791577
 31
0.0
  0
LINE
  5
2CB
330
A
100
AcDbEntity
  8
1
  6
L_DASH
 62
     7
100
AcDbLine
 10
1424.443103872
 20
1129.448791577
 30
0.0
 11
1428.484555756
 21
1122.448791577
 31
0.0
  0
LINE
  5
2CC
330
A
100
AcDbEntity
  8
1
  6
L_DASH
 62
     7
100
AcDbLine
 10
1424.443103872
 20
1115.448791577
 30
0.0
 11
1424.443103872
 21
1129.448791577
 31
0.0
  0
LINE
  5
2CD
330
A
100
AcDbEntity
  8
1
  6
L_DASH
 62
     3
100
AcDbLine
 10
1416.443103872
 20
1114.448791577
 30
0.0
 11
1416.443103872
 21
1130.448791577
 31
0.0
  0
LINE
  5
2CE
330
A
100
AcDbEntity
  8
1
  6
L_DASH
 62
     7
100
AcDbLine
 10
1424.443103872
 20
1115.448791577
 30
0.0
 11
1381.443103872
 21
1115.448791577
 31
0.0
  0
LINE
  5
2CF
330
A
100
AcDbEntity
  8
1
  6
L_DASH
 62
     7
100
AcDbLine
 10
1424.443103872
 20
1129.448791577
 30
0.0
 11
1381.443103872
 21
1129.448791577
 31
0.0
  0
LINE
  5
2D0
330
A
100
AcDbEntity
  8
1
  6
L_DASH
 62
     3
100
AcDbLine
 10
1416.443103872
 20
1130.448791577
 30
0.0
 11
1381.443103872
 21
1130.448791577
 31
0.0
  0
LINE
  5
2D1
330
A
100
AcDbEntity
  8
1
  6
L_DASH
 62
     3
100
AcDbLine
 10
1416.443103872
 20
1114.448791577
 30
0.0
 11
1381.443103872
 21
1114.448791577
 31
0.0
  0
LINE
  5
2D2
330
A
100
AcDbEntity
  8
1
  6
L_DASH
 62
     7
100
AcDbLine
 10
1445.942857181
 20
1132.948775498
 30
0.0
 11
1438.942857181
 21
1136.990227383
 31
0.0
  0
LINE
  5
2D3
330
A
100
AcDbEntity
  8
1
  6
L_DASH
 62
     7
100
AcDbLine
 10
1431.942857181
 20
1132.948775498
 30
0.0
 11
1438.942857181
 21
1136.990227383
 31
0.0
  0
LINE
  5
2D4
330
A
100
AcDbEntity
  8
1
  6
L_DASH
 62
     7
100
AcDbLine
 10
1445.942857181
 20
1132.948775498
 30
0.0
 11
1431.942857181
 21
1132.948775498
 31
0.0
  0
LINE
  5
2D5
330
A
100
AcDbEntity
  8
1
  6
L_DASH
 62
     3
100
AcDbLine
 10
1446.942857181
 20
1124.948775498
 30
0.0
 11
1430.942857181
 21
1124.948775498
 31
0.0
  0
LINE
  5
2D6
330
A
100
AcDbEntity
  8
1
  6
L_DASH
 62
     7
100
AcDbLine
 10
1445.942857181
 20
1132.948775498
 30
0.0
 11
1445.942857181
 21
1089.948775498
 31
0.0
  0
LINE
  5
2D7
330
A
100
AcDbEntity
  8
1
  6
L_DASH
 62
     7
100
AcDbLine
 10
1671.442857181
 20
1444.968487441
 30
0.0
 11
1611.442857181
 21
1444.968487441
 31
0.0
  0
LINE
  5
2D8
330
A
100
AcDbEntity
  8
1
  6
L_DASH
 62
     7
100
AcDbLine
 10
1431.942857181
 20
1132.948775498
 30
0.0
 11
1431.942857181
 21
1089.948775498
 31
0.0
  0
ARC
  5
2D9
330
A
100
AcDbEntity
  8
1
  6
L_DASH
 62
     7
100
AcDbCircle
 10
1476.442857181
 20
1441.948501556
 30
0.0
 40
5.0
100
AcDbArc
 50
180.0
 51
270.0
  0
LINE
  5
2DA
330
A
100
AcDbEntity
  8
1
  6
L_DASH
 62
     7
100
AcDbLine
 10
1471.442857181
 20
1441.948501556
 30
0.0
 11
1471.442857181
 21
1444.968487441
 31
0.0
  0
ARC
  5
2DB
330
A
100
AcDbEntity
  8
1
  6
L_DASH
 62
     7
100
AcDbCircle
 10
1606.442857181
 20
1441.948501556
 30
0.0
 40
5.0
100
AcDbArc
 50
270.0
 51
0.0
  0
LINE
  5
2DC
330
A
100
AcDbEntity
  8
1
  6
L_DASH
 62
     7
100
AcDbLine
 10
1411.442857181
 20
1441.010045743
 30
0.0
 11
1411.442857181
 21
1444.968487441
 31
0.0
  0
LINE
  5
2DD
330
A
100
AcDbEntity
  8
1
  6
L_DASH
 62
     7
100
AcDbLine
 10
1386.443121593
 20
1159.948775498
 30
0.0
 11
1386.443121593
 21
1289.948775498
 31
0.0
  0
LINE
  5
2DE
330
A
100
AcDbEntity
  8
1
  6
L_DASH
 62
     7
100
AcDbLine
 10
1611.442857181
 20
1441.948501556
 30
0.0
 11
1611.442857181
 21
1444.968487441
 31
0.0
  0
ARC
  5
2DF
330
A
100
AcDbEntity
  8
1
  6
L_DASH
 62
     7
100
AcDbCircle
 10
1381.443121593
 20
1289.948775498
 30
0.0
 40
5.0
100
AcDbArc
 50
0.0
 51
90.0
  0
LINE
  5
2E0
330
A
100
AcDbEntity
  8
1
  6
L_DASH
 62
     7
100
AcDbLine
 10
1381.443121593
 20
1294.948775498
 30
0.0
 11
1381.443121593
 21
1354.948775498
 31
0.0
  0
LINE
  5
2E1
330
A
100
AcDbEntity
  8
1
  6
L_DASH
 62
     7
100
AcDbLine
 10
1471.442857181
 20
1444.968487441
 30
0.0
 11
1411.442857181
 21
1444.968487441
 31
0.0
  0
LINE
  5
2E2
330
A
100
AcDbEntity
  8
1
  6
L_DASH
 62
     7
100
AcDbLine
 10
1665.737524166
 20
1089.948775498
 30
0.0
 11
1641.442857181
 21
1089.948775498
 31
0.0
  0
ARC
  5
2E3
330
A
100
AcDbEntity
  8
1
  6
L_DASH
 62
     7
100
AcDbCircle
 10
1606.442857181
 20
1089.948775498
 30
0.0
 40
5.0
100
AcDbArc
 50
0.0
 51
90.0
  0
LINE
  5
2E4
330
A
100
AcDbEntity
  8
1
  6
L_DASH
 62
     3
100
AcDbLine
 10
1446.942857181
 20
1124.948775498
 30
0.0
 11
1446.942857181
 21
1089.948775498
 31
0.0
  0
LINE
  5
2E5
330
A
100
AcDbEntity
  8
1
  6
L_DASH
 62
     3
100
AcDbLine
 10
1430.942857181
 20
1124.948775498
 30
0.0
 11
1430.942857181
 21
1089.948775498
 31
0.0
  0
LINE
  5
2E6
330
A
100
AcDbEntity
  8
1
  6
L_DASH
 62
     7
100
AcDbLine
 10
1606.442857181
 20
1436.948501556
 30
0.0
 11
1476.442857181
 21
1436.948501556
 31
0.0
  0
LINE
  5
2E7
330
A
100
AcDbEntity
  8
1
  6
L_DASH
 62
     7
100
AcDbLine
 10
1611.442857181
 20
1089.948775498
 30
0.0
 11
1641.442841922
 21
1089.948775498
 31
0.0
  0
ARC
  5
2E8
330
A
100
AcDbEntity
  8
1
  6
L_DASH
 62
     7
100
AcDbCircle
 10
1381.443121593
 20
1159.948775498
 30
0.0
 40
5.0
100
AcDbArc
 50
270.0
 51
360.0
  0
LINE
  5
2E9
330
A
100
AcDbEntity
  8
1
  6
L_DASH
 62
     7
100
AcDbLine
 10
1754.813198357
 20
1436.948501556
 30
0.0
 11
1676.442857181
 21
1436.948501556
 31
0.0
  0
LINE
  5
2EA
330
A
100
AcDbEntity
  8
1
  6
L_DASH
 62
     7
100
AcDbLine
 10
1606.442857181
 20
1094.948775498
 30
0.0
 11
1476.442857181
 21
1094.948775498
 31
0.0
  0
ARC
  5
2EB
330
A
100
AcDbEntity
  8
1
  6
L_DASH
 62
     7
100
AcDbCircle
 10
1476.442857181
 20
1089.948775498
 30
0.0
 40
5.0
100
AcDbArc
 50
90.0
 51
180.0
  0
LINE
  5
2EC
330
A
100
AcDbEntity
  8
1
  6
L_DASH
 62
     7
100
AcDbLine
 10
1471.442857181
 20
1089.948775498
 30
0.0
 11
1411.442857181
 21
1089.948775498
 31
0.0
  0
LINE
  5
2ED
330
A
100
AcDbEntity
  8
1
  6
L_DASH
 62
     7
100
AcDbLine
 10
1381.443121593
 20
1094.948775498
 30
0.0
 11
1381.443121593
 21
1154.948775498
 31
0.0
  0
ARC
  5
2EE
330
A
100
AcDbEntity
  8
1
  6
L_DASH
 62
     7
100
AcDbCircle
 10
1406.442857181
 20
1089.948775498
 30
0.0
 40
5.0
100
AcDbArc
 50
0.0
 51
90.0
  0
ARC
  5
2EF
330
A
100
AcDbEntity
  8
1
  6
L_DASH
 62
     7
100
AcDbCircle
 10
1676.442857181
 20
1441.948501556
 30
0.0
 40
5.0
100
AcDbArc
 50
180.0
 51
270.0
  0
LINE
  5
2F0
330
A
100
AcDbEntity
  8
1
  6
L_DASH
 62
     7
100
AcDbLine
 10
1671.442857181
 20
1441.948501556
 30
0.0
 11
1671.442857181
 21
1444.968487441
 31
0.0
  0
LINE
  5
2F1
330
A
100
AcDbEntity
  8
1
  6
L_DASH
 62
     7
100
AcDbLine
 10
1406.442857181
 20
1094.948775498
 30
0.0
 11
1381.443121593
 21
1094.948775498
 31
0.0
  0
LINE
  5
2F2
330
A
100
AcDbEntity
  8
1
  6
L_DASH
 62
     7
100
AcDbLine
 10
1504.442874316
 20
1090.948555103
 30
0.0
 11
1504.4428746
 21
1094.948555103
 31
0.0
  0
LINE
  5
2F3
330
A
100
AcDbEntity
  8
1
  6
L_DASH
 62
     7
100
AcDbLine
 10
1478.44287357
 20
1090.948556947
 30
0.0
 11
1478.442873854
 21
1094.948556947
 31
0.0
  0
LINE
  5
2F4
330
A
100
AcDbEntity
  8
1
  6
L_DASH
 62
     7
100
AcDbLine
 10
1479.44287355
 20
1089.948550408
 30
0.0
 11
1503.44287355
 21
1089.948548706
 31
0.0
  0
LINE
  5
2F5
330
A
100
AcDbEntity
  8
1
  6
L_DASH
 62
     7
100
AcDbLine
 10
1479.442873528
 20
1089.948550408
 30
0.0
 11
1478.442873599
 21
1090.948550479
 31
0.0
  0
LINE
  5
2F6
330
A
100
AcDbEntity
  8
1
  6
L_DASH
 62
     7
100
AcDbLine
 10
1504.442874316
 20
1090.948548664
 30
0.0
 11
1503.442874245
 21
1089.948548735
 31
0.0
  0
CIRCLE
  5
2F7
330
A
100
AcDbEntity
  8
1
  6
L_DASH
 62
     7
100
AcDbCircle
 10
1541.442860552
 20
1224.948775498
 30
0.0
 40
85.0
  0
LINE
  5
2F8
330
A
100
AcDbEntity
  8
3
  6
SOLID
 62
     7
100
AcDbLine
 10
2806.442900052
 20
1039.948795143
 30
0.0
 11
2726.442900052
 21
1039.948797048
 31
0.0
  0
LINE
  5
2F9
330
A
100
AcDbEntity
  8
3
  6
SOLID
 62
     7
100
AcDbLine
 10
2668.442903671
 20
1071.948798429
 30
0.0
 11
2668.442899528
 21
897.9487984289999
 31
0.0
  0
LINE
  5
2FA
330
A
100
AcDbEntity
  8
3
  6
SOLID
 62
     7
100
AcDbLine
 10
2864.443993661
 20
1071.948796096
 30
0.0
 11
2864.443993661
 21
897.948796096
 31
0.0
  0
LWPOLYLINE
  5
2FB
330
A
100
AcDbEntity
  8
1
  6
SOLID
 62
     7
100
AcDbPolyline
 90
       33
 70
     0
 43
0.0
 10
2921.443471693
 20
1124.77097282
 10
2920.17184271
 20
1122.470799993
 10
2918.863631643
 20
1120.189848192
 10
2917.519149801
 20
1117.928660207
 10
2916.138717126
 20
1115.687774122
 10
2914.722662111
 20
1113.46772319
 10
2913.27132173
 20
1111.269035709
 10
2911.785041352
 20
1109.09223489
 10
2910.264174661
 20
1106.937838737
 10
2908.709083571
 20
1104.806359922
 10
2907.120138139
 20
1102.698305665
 10
2905.497716481
 20
1100.614177609
 10
2903.842204677
 20
1098.554471705
 10
2902.153996682
 20
1096.519678094
 10
2900.433494232001
 20
1094.510280985
 10
2898.681106747
 20
1092.526758546
 10
2896.897251235
 20
1090.569582788
 10
2895.082352192
 20
1088.639219452
 10
2893.236841503
 20
1086.736127896
 10
2891.361158335
 20
1084.860760993
 10
2889.455749036
 20
1083.013565014
 10
2887.521067029
 20
1081.194979529
 10
2885.557572701
 20
1079.405437299
 10
2883.565733297
 20
1077.645364174
 10
2881.546022807
 20
1075.91517899
 10
2879.49892185
 20
1074.215293472
 10
2877.424917569
 20
1072.546112135
 10
2875.324503503
 20
1070.908032186
 10
2873.198179481
 20
1069.301443432
 10
2871.046451493
 20
1067.726728186
 10
2868.869831577001
 20
1066.184261177
 10
2866.668837695
 20
1064.674409458
 10
2864.443993606
 20
1063.197532322
  0
LINE
  5
2FC
330
A
100
AcDbEntity
  8
1
  6
L_DASH
 62
     7
100
AcDbLine
 10
1489.481332616
 20
1094.948727162
 30
0.0
 11
1593.40438107
 21
1094.948727162
 31
0.0
  0
LINE
  5
2FD
330
A
100
AcDbEntity
  8
1
  6
CENTER
 62
     2
100
AcDbLine
 10
1760.127674588
 20
1224.948775498
 30
0.0
 11
1338.415803443
 21
1224.948775498
 31
0.0
  0
ARC
  5
2FE
330
A
100
AcDbEntity
  8
1
  6
L_DASH
 62
     7
100
AcDbCircle
 10
1384.546174379
 20
1359.948775498
 30
0.0
 40
5.0
100
AcDbArc
 50
270.0
 51
345.0
  0
LINE
  5
2FF
330
A
100
AcDbEntity
  8
1
  6
L_DASH
 62
     7
100
AcDbLine
 10
1381.443121593
 20
1354.948775498
 30
0.0
 11
1384.546174379
 21
1354.948775498
 31
0.0
  0
LINE
  5
300
330
A
100
AcDbEntity
  8
1
  6
L_DASH
 62
     7
100
AcDbLine
 10
1411.442857181
 20
1441.010045743
 30
0.0
 11
1389.375803511
 21
1358.654680273
 31
0.0
  0
LINE
  5
301
330
A
100
AcDbEntity
  8
50
  6
SOLID
 62
     7
100
AcDbLine
 10
2100.435701065
 20
1433.373332869
 30
0.0
 11
2101.401626876
 21
1433.114513766
 31
0.0
  0
LINE
  5
302
330
A
100
AcDbEntity
  8
50
  6
SOLID
 62
     7
100
AcDbLine
 10
2101.401626878
 20
1433.114513766
 30
0.0
 11
2101.142807775
 21
1432.148587955
 31
0.0
  0
LINE
  5
303
330
A
100
AcDbEntity
  8
50
  6
SOLID
 62
     7
100
AcDbLine
 10
2101.142807775
 20
1432.148587952999
 30
0.0
 11
2084.72206899
 21
1436.5485127
 31
0.0
  0
LINE
  5
304
330
A
100
AcDbEntity
  8
50
  6
SOLID
 62
     7
100
AcDbLine
 10
2088.585772209
 20
1435.513236295
 30
0.0
 11
2088.844591312
 21
1436.479162106
 31
0.0
  0
LINE
  5
305
330
A
100
AcDbEntity
  8
50
  6
SOLID
 62
     7
100
AcDbLine
 10
2088.844591313
 20
1436.479162108
 30
0.0
 11
2089.810517123
 21
1436.220343005
 31
0.0
  0
LINE
  5
306
330
A
100
AcDbEntity
  8
50
  6
SOLID
 62
     7
100
AcDbLine
 10
2150.281689303
 20
1458.115244689
 30
0.0
 11
2150.528970265
 21
1458.048985939
 31
0.0
  0
LINE
  5
307
330
A
100
AcDbEntity
  8
50
  6
SOLID
 62
     7
100
AcDbLine
 10
2273.244518924
 20
1423.407476342
 30
0.0
 11
2274.538614438
 21
1428.237105396
 31
0.0
  0
LINE
  5
308
330
A
100
AcDbEntity
  8
50
  6
SOLID
 62
     7
100
AcDbLine
 10
2175.6860118
 20
1449.54820578
 30
0.0
 11
2273.244518695
 21
1423.407476403
 31
0.0
  0
LINE
  5
309
330
A
100
AcDbEntity
  8
50
  6
SOLID
 62
     7
100
AcDbLine
 10
2275.832709956
 20
1433.066734469
 30
0.0
 11
2274.538614443
 21
1428.237105415
 31
0.0
  0
LINE
  5
30A
330
A
100
AcDbEntity
  8
50
  6
SOLID
 62
     7
100
AcDbLine
 10
2178.274202832
 20
1459.207463907
 30
0.0
 11
2275.832709728
 21
1433.06673453
 31
0.0
  0
ARC
  5
30B
330
A
100
AcDbEntity
  8
50
  6
SOLID
 62
     7
100
AcDbCircle
 10
2095.734245427
 20
1471.85096313
 30
0.0
 40
0.850000024
100
AcDbArc
 50
74.99999658100001
 51
164.999996581
  0
ARC
  5
30C
330
A
100
AcDbEntity
  8
50
  6
SOLID
 62
     7
100
AcDbCircle
 10
2095.734245427
 20
1471.85096313
 30
0.0
 40
0.850000024
100
AcDbArc
 50
-195.000003419
 51
-105.000003419
  0
LINE
  5
30D
330
A
100
AcDbEntity
  8
50
  6
CENTER
 62
     7
100
AcDbLine
 10
2152.140187535
 20
1465.329818053
 30
0.0
 11
2101.746483777001
 21
1478.832773501
 31
0.0
  0
LINE
  5
30E
330
A
100
AcDbEntity
  8
50
  6
CENTER
 62
     7
100
AcDbLine
 10
2151.757799944
 20
1456.839485875
 30
0.0
 11
2094.430486833
 21
1472.200296793
 31
0.0
  0
LINE
  5
30F
330
A
100
AcDbEntity
  8
50
  6
SOLID
 62
     7
100
AcDbLine
 10
2095.580684662
 20
1440.368249985
 30
0.0
 11
2103.241653099
 21
1468.959366602
 31
0.0
  0
LINE
  5
310
330
A
100
AcDbEntity
  8
50
  6
SOLID
 62
     7
100
AcDbLine
 10
2090.034657244
 20
1435.125008628
 30
0.0
 11
2093.898360487
 21
1434.089732217
 31
0.0
  0
LINE
  5
311
330
A
100
AcDbEntity
  8
50
  6
SOLID
 62
     7
100
AcDbLine
 10
2104.454725189
 20
1470.39429425
 30
0.0
 11
2095.954239063
 21
1472.671993187
 31
0.0
  0
LINE
  5
312
330
A
100
AcDbEntity
  8
50
  6
SOLID
 62
     7
100
AcDbLine
 10
2104.838113431
 20
1478.781138703
 30
0.0
 11
2101.940335998
 21
1479.557596011
 31
0.0
  0
LINE
  5
313
330
A
100
AcDbEntity
  8
50
  6
SOLID
 62
     7
100
AcDbLine
 10
2104.131006722
 20
1480.005883619
 30
0.0
 11
2102.1991551
 21
1480.523521825
 31
0.0
  0
LINE
  5
314
330
A
100
AcDbEntity
  8
50
  6
SOLID
 62
     7
100
AcDbLine
 10
2102.71571973
 20
1470.860259468
 30
0.0
 11
2104.838113426
 21
1478.781138686
 31
0.0
  0
LINE
  5
315
330
A
100
AcDbEntity
  8
50
  6
SOLID
 62
     7
100
AcDbLine
 10
2104.838113431
 20
1478.781138703
 30
0.0
 11
2104.131006723
 21
1480.005883617
 31
0.0
  0
LINE
  5
316
330
A
100
AcDbEntity
  8
50
  6
SOLID
 62
     7
100
AcDbLine
 10
2099.042558555
 20
1480.334053323
 30
0.0
 11
2101.940335987
 21
1479.557596014
 31
0.0
  0
LINE
  5
317
330
A
100
AcDbEntity
  8
50
  6
SOLID
 62
     7
100
AcDbLine
 10
2099.042558555
 20
1480.334053323
 30
0.0
 11
2100.267303468
 21
1481.041160031
 31
0.0
  0
LINE
  5
318
330
A
100
AcDbEntity
  8
50
  6
SOLID
 62
     7
100
AcDbLine
 10
2100.267303471
 20
1481.041160032
 30
0.0
 11
2102.199155092
 21
1480.523521827
 31
0.0
  0
LINE
  5
319
330
A
100
AcDbEntity
  8
50
  6
SOLID
 62
     7
100
AcDbLine
 10
2096.920164854
 20
1472.413174087999
 30
0.0
 11
2099.04255855
 21
1480.334053306
 31
0.0
  0
ARC
  5
31A
330
A
100
AcDbEntity
  8
50
  6
SOLID
 62
     7
100
AcDbCircle
 10
2105.055767321
 20
1469.35326827
 30
0.0
 40
0.850000024
100
AcDbArc
 50
-105.000003419
 51
-15.000003419
  0
LINE
  5
31B
330
A
100
AcDbEntity
  8
50
  6
SOLID
 62
     7
100
AcDbLine
 10
2087.777324555
 20
1442.155340164
 30
0.0
 11
2095.514246597
 21
1471.029919428
 31
0.0
  0
LINE
  5
31C
330
A
100
AcDbEntity
  8
50
  6
SOLID
 62
     7
100
AcDbLine
 10
2090.034657244
 20
1435.125008628
 30
0.0
 11
2086.170953999999
 21
1436.160285039
 31
0.0
  0
LINE
  5
31D
330
A
100
AcDbEntity
  8
50
  6
SOLID
 62
     7
100
AcDbLine
 10
2166.976587522
 20
1465.340480125
 30
0.0
 11
2155.385477792
 21
1468.446309357999
 31
0.0
  0
LINE
  5
31E
330
A
100
AcDbEntity
  8
50
  6
SOLID
 62
     7
100
AcDbLine
 10
2155.38547777
 20
1468.446309364
 30
0.0
 11
2154.773105313
 21
1468.09275601
 31
0.0
  0
LINE
  5
31F
330
A
100
AcDbEntity
  8
50
  6
CENTER
 62
     7
100
AcDbLine
 10
2091.309827612
 20
1439.883993357
 30
0.0
 11
2087.991243516
 21
1427.498871858
 31
0.0
  0
LINE
  5
320
330
A
100
AcDbEntity
  8
50
  6
SOLID
 62
     7
100
AcDbLine
 10
2154.773105312
 20
1468.092756009
 30
0.0
 11
2150.99427572
 21
1453.989975345
 31
0.0
  0
LINE
  5
321
330
A
100
AcDbEntity
  8
50
  6
SOLID
 62
     7
100
AcDbLine
 10
2107.904288456
 20
1430.336854232
 30
0.0
 11
2074.096885077
 21
1439.395522828
 31
0.0
  0
LINE
  5
322
330
A
100
AcDbEntity
  8
50
  6
SOLID
 62
     7
100
AcDbLine
 10
2177.557256346
 20
1446.87244441
 30
0.0
 11
2175.142421035
 21
1447.519497736
 31
0.0
  0
LINE
  5
323
330
A
100
AcDbEntity
  8
50
  6
SOLID
 62
     7
100
AcDbLine
 10
2178.567697275
 20
1462.234650886
 30
0.0
 11
2178.921250629
 21
1461.622278429
 31
0.0
  0
ARC
  5
324
330
A
100
AcDbEntity
  8
50
  6
SOLID
 62
     7
100
AcDbCircle
 10
2113.405074292
 20
1420.143056496
 30
0.0
 40
1.0
100
AcDbArc
 50
306.744569948
 51
33.372283265
  0
ARC
  5
325
330
A
100
AcDbEntity
  8
50
  6
SOLID
 62
     7
100
AcDbCircle
 10
2118.41575865
 20
1423.443517412
 30
0.0
 40
5.0
100
AcDbArc
 50
74.99999658100001
 51
213.372283265
  0
LINE
  5
326
330
A
100
AcDbEntity
  8
50
  6
SOLID
 62
     7
100
AcDbLine
 10
2119.709851643
 20
1428.273139711
 30
0.0
 11
2126.686113931
 21
1426.403855419
 31
0.0
  0
LINE
  5
327
330
A
100
AcDbEntity
  8
50
  6
SOLID
 62
     7
100
AcDbLine
 10
2111.439614182
 20
1424.212845701
 30
0.0
 11
2113.211218493
 21
1430.824561421
 31
0.0
  0
LINE
  5
328
330
A
100
AcDbEntity
  8
50
  6
SOLID
 62
     7
100
AcDbLine
 10
2110.214869266
 20
1423.505738992
 30
0.0
 11
2106.351288935
 21
1424.540982469
 31
0.0
  0
ARC
  5
329
330
A
100
AcDbEntity
  8
50
  6
SOLID
 62
     7
100
AcDbCircle
 10
-2177.298439652
 20
1445.906525318
 30
0.0
 40
1.0
210
0.0
220
0.0
230
-1.0
100
AcDbArc
 50
105.000003419
 51
195.000003419
  0
ARC
  5
32A
330
A
100
AcDbEntity
  8
50
  6
SOLID
 62
     7
100
AcDbCircle
 10
2126.915430884
 20
1428.154150887
 30
0.0
 40
1.75
100
AcDbArc
 50
254.999996581
 51
289.178286832
  0
LINE
  5
32B
330
A
100
AcDbEntity
  8
50
  6
SOLID
 62
     7
100
AcDbLine
 10
2104.835768531
 20
1468.53222463
 30
0.0
 11
2095.514246637
 21
1471.02991949
 31
0.0
  0
ARC
  5
32C
330
A
100
AcDbEntity
  8
50
  6
SOLID
 62
     7
100
AcDbCircle
 10
2104.506491556
 20
1470.58748609
 30
0.0
 40
0.200000003
100
AcDbArc
 50
254.999996581
 51
344.999996581
  0
ARC
  5
32D
330
A
100
AcDbEntity
  8
50
  6
SOLID
 62
     7
100
AcDbCircle
 10
-2143.91575799
 20
1379.276227667
 30
0.0
 40
60.0
210
0.0
220
0.0
230
-1.0
100
AcDbArc
 50
105.000003419
 51
229.327460825
  0
LINE
  5
32E
330
A
100
AcDbEntity
  8
50
  6
SOLID
 62
     7
100
AcDbLine
 10
2178.92125063
 20
1461.622278428
 30
0.0
 11
2175.142421038
 21
1447.519497764
 31
0.0
  0
LINE
  5
32F
330
A
100
AcDbEntity
  8
50
  6
SOLID
 62
     7
100
AcDbLine
 10
2166.976587522
 20
1465.340480125
 30
0.0
 11
2178.567697252
 21
1462.234650892
 31
0.0
  0
ARC
  5
330
330
A
100
AcDbEntity
  8
50
  6
SOLID
 62
     7
100
AcDbCircle
 10
-2110.473690908
 20
1424.471671567
 30
0.0
 40
1.0
210
0.0
220
0.0
230
-1.0
100
AcDbArc
 50
195.000003419
 51
285.000003419
  0
ARC
  5
331
330
A
100
AcDbEntity
  8
50
  6
SOLID
 62
     7
100
AcDbCircle
 10
2143.91575799
 20
1379.276227667
 30
0.0
 40
60.0
100
AcDbArc
 50
74.99999658100001
 51
120.779952154
  0
ARC
  5
332
330
A
100
AcDbEntity
  8
50
  6
SOLID
 62
     7
100
AcDbCircle
 10
2143.91575799
 20
1379.276227667
 30
0.0
 40
50.0
100
AcDbArc
 50
126.744576679
 51
148.739273984
  0
LINE
  5
333
330
A
100
AcDbEntity
  8
50
  6
SOLID
 62
     7
100
AcDbLine
 10
2106.610192948
 20
1425.507225167
 30
0.0
 11
2107.904288461
 21
1430.336854221
 31
0.0
  0
LINE
  5
334
330
A
100
AcDbEntity
  8
50
  6
SOLID
 62
     7
100
AcDbLine
 10
2175.142441814
 20
1447.519492166
 30
0.0
 11
2171.178232032
 21
1432.724863377
 31
0.0
  0
LINE
  5
335
330
A
100
AcDbEntity
  8
50
  6
SOLID
 62
     7
100
AcDbLine
 10
2150.994296496
 20
1453.989969747
 30
0.0
 11
2147.030086714
 21
1439.195340958
 31
0.0
  0
LINE
  5
336
330
A
100
AcDbEntity
  8
50
  6
SOLID
 62
     7
100
AcDbLine
 10
2178.264363056
 20
1445.647699494
 30
0.0
 11
2174.337386008
 21
1430.992025128
 31
0.0
  0
LINE
  5
337
330
A
100
AcDbEntity
  8
50
  6
SOLID
 62
     7
100
AcDbLine
 10
2147.613556152
 20
1454.89583661
 30
0.0
 11
2143.427760001
 21
1439.274236434
 31
0.0
  0
LINE
  5
338
330
A
100
AcDbEntity
  8
50
  6
SOLID
 62
     7
100
AcDbLine
 10
2150.994275764
 20
1453.989975304
 30
0.0
 11
2147.61355621
 21
1454.895836595
 31
0.0
  0
ARC
  5
339
330
A
100
AcDbEntity
  8
50
  6
SOLID
 62
     7
100
AcDbCircle
 10
2143.915755516
 20
1379.276220817
 30
0.0
 40
45.0
100
AcDbArc
 50
-79.91556733100001
 51
229.915188864
  0
LINE
  5
33A
330
A
100
AcDbEntity
  8
50
  6
SOLID
 62
     7
100
AcDbLine
 10
2227.951715425
 20
1356.758905152
 30
0.0
 11
2225.502225598
 21
1355.344691735
 31
0.0
  0
LINE
  5
33B
330
A
100
AcDbEntity
  8
50
  6
SOLID
 62
     7
100
AcDbLine
 10
2259.309629038
 20
1346.286023119
 30
0.0
 11
2257.895415622
 21
1348.735512946
 31
0.0
  0
LINE
  5
33C
330
A
100
AcDbEntity
  8
50
  6
SOLID
 62
     7
100
AcDbLine
 10
2151.795220818
 20
1334.971435223
 30
0.0
 11
2151.795220818
 21
1319.971435223
 31
0.0
  0
LINE
  5
33D
330
A
100
AcDbEntity
  8
50
  6
SOLID
 62
     7
100
AcDbLine
 10
1990.719367706
 20
1097.318879772
 30
0.0
 11
1697.077112477
 21
1176.000084924
 31
0.0
  0
LINE
  5
33E
330
A
100
AcDbEntity
  8
50
  6
SOLID
 62
     7
100
AcDbLine
 10
2227.951714356001
 20
1356.758905437
 30
0.0
 11
2257.895414492001
 21
1348.735513252
 31
0.0
  0
LINE
  5
33F
330
A
100
AcDbEntity
  8
50
  6
SOLID
 62
     7
100
AcDbLine
 10
2096.734172034
 20
1112.394391031
 30
0.0
 11
2090.910742223
 21
1090.661060287
 31
0.0
  0
LINE
  5
340
330
A
100
AcDbEntity
  8
50
  6
CENTER
 62
     7
100
AcDbLine
 10
2051.335657924
 20
1124.558888926
 30
0.0
 11
2101.89494933
 21
1111.011564391
 31
0.0
  0
LINE
  5
341
330
A
100
AcDbEntity
  8
50
  6
SOLID
 62
     7
100
AcDbLine
 10
2045.512228101
 20
1102.82555814
 30
0.0
 11
2090.910741211001
 21
1090.661060312
 31
0.0
  0
LINE
  5
342
330
A
100
AcDbEntity
  8
50
  6
SOLID
 62
     7
100
AcDbLine
 10
2096.734171934
 20
1112.394390656
 30
0.0
 11
2102.557601745
 21
1134.1277214
 31
0.0
  0
LINE
  5
343
330
A
100
AcDbEntity
  8
50
  6
CENTER
 62
     7
100
AcDbLine
 10
2096.656707398
 20
1319.470387216
 30
0.0
 11
2155.819586637
 21
1303.617737718
 31
0.0
  0
LINE
  5
344
330
A
100
AcDbEntity
  8
50
  6
SOLID
 62
     7
100
AcDbLine
 10
2152.135963544
 20
1351.998910721
 30
0.0
 11
2158.384276689
 21
1375.317927274
 31
0.0
  0
LINE
  5
345
330
A
100
AcDbEntity
  8
50
  6
SOLID
 62
     7
100
AcDbLine
 10
2151.795219453
 20
1312.089414792
 30
0.0
 11
2151.79522168
 21
1349.410720317
 31
0.0
  0
LINE
  5
346
330
A
100
AcDbEntity
  8
50
  6
SOLID
 62
     7
100
AcDbLine
 10
2051.335658836
 20
1124.558888883
 30
0.0
 11
2045.512229025
 21
1102.825558139
 31
0.0
  0
LINE
  5
347
330
A
100
AcDbEntity
  8
50
  6
SOLID
 62
     7
100
AcDbLine
 10
2051.335658736
 20
1124.558888508
 30
0.0
 11
2057.159088547
 21
1146.292219252
 31
0.0
  0
LINE
  5
348
330
A
100
AcDbEntity
  8
50
  6
SOLID
 62
     7
100
AcDbLine
 10
2103.498329373
 20
1325.03030498
 30
0.0
 11
2122.158702346
 21
1357.351665203
 31
0.0
  0
LINE
  5
349
330
A
100
AcDbEntity
  8
50
  6
SOLID
 62
     7
100
AcDbLine
 10
2123.157685704
 20
1359.763483362
 30
0.0
 11
2129.405795595
 21
1383.082554376
 31
0.0
  0
LINE
  5
34A
330
A
100
AcDbEntity
  8
50
  6
SOLID
 62
     7
100
AcDbLine
 10
2103.498329317
 20
1325.03030477
 30
0.0
 11
2058.858740506
 21
1158.427322501
 31
0.0
  0
LINE
  5
34B
330
A
100
AcDbEntity
  8
50
  6
CENTER
 62
     7
100
AcDbLine
 10
2116.909148514
 20
1278.486215404
 30
0.0
 11
2148.338885445
 21
1395.783562503
 31
0.0
  0
LINE
  5
34C
330
A
100
AcDbEntity
  8
50
  6
CENTER
 62
     3
100
AcDbLine
 10
2227.940493606
 20
1175.588519908
 30
0.0
 11
1385.056011046
 21
1401.438790226
 31
0.0
  0
LINE
  5
34D
330
A
100
AcDbEntity
  8
50
  6
SOLID
 62
     7
100
AcDbLine
 10
2086.547969122
 20
1350.634004408
 30
0.0
 11
2090.00191244
 21
1343.226997907
 31
0.0
  0
LINE
  5
34E
330
A
100
AcDbEntity
  8
50
  6
SOLID
 62
     7
100
AcDbLine
 10
2088.280778663
 20
1306.874292653
 30
0.0
 11
2064.027417203
 21
1312.029505286
 31
0.0
  0
ARC
  5
34F
330
A
100
AcDbEntity
  8
50
  6
SOLID
 62
     7
100
AcDbCircle
 10
2062.987860973
 20
1307.13877435
 30
0.0
 40
5.0
100
AcDbArc
 50
77.999996581
 51
164.999996581
  0
LINE
  5
350
330
A
100
AcDbEntity
  8
50
  6
SOLID
 62
     7
100
AcDbLine
 10
2091.557391194
 20
1093.075981427
 30
0.0
 11
2093.00627991
 21
1092.687752773
 31
0.0
  0
ARC
  5
351
330
A
100
AcDbEntity
  8
50
  6
SOLID
 62
     7
100
AcDbCircle
 10
2094.5334541
 20
1345.340095823
 30
0.0
 40
5.0
100
AcDbArc
 50
204.999996581
 51
244.999996581
  0
LINE
  5
352
330
A
100
AcDbEntity
  8
50
  6
SOLID
 62
     7
100
AcDbLine
 10
2092.628507442
 20
1315.372828576
 30
0.0
 11
2090.179017615
 21
1313.958615159
 31
0.0
  0
LINE
  5
353
330
A
100
AcDbEntity
  8
50
  6
SOLID
 62
     7
100
AcDbLine
 10
2151.795307318
 20
1312.089165429
 30
0.0
 11
2149.946965495
 21
1305.191301975
 31
0.0
  0
LINE
  5
354
330
A
100
AcDbEntity
  8
50
  6
SOLID
 62
     7
100
AcDbLine
 10
1990.719367706
 20
1097.318879771
 30
0.0
 11
2026.177369273
 21
1229.650741737
 31
0.0
  0
LINE
  5
355
330
A
100
AcDbEntity
  8
50
  6
SOLID
 62
     7
100
AcDbLine
 10
2166.039518271
 20
1295.702402813
 30
0.0
 11
2167.453731688
 21
1293.252912986
 31
0.0
  0
LINE
  5
356
330
A
100
AcDbEntity
  8
50
  6
SOLID
 62
     7
100
AcDbLine
 10
2142.089459573
 20
1198.592183335
 30
0.0
 11
2167.453731641
 21
1293.252912798
 31
0.0
  0
LINE
  5
357
330
A
100
AcDbEntity
  8
50
  6
SOLID
 62
     7
100
AcDbLine
 10
2046.026098937
 20
1263.155146844
 30
0.0
 11
2074.520461864
 21
1255.520103487
 31
0.0
  0
LINE
  5
358
330
A
100
AcDbEntity
  8
50
  6
SOLID
 62
     7
100
AcDbLine
 10
2100.356163129
 20
1313.302208981
 30
0.0
 11
2092.62850759
 21
1315.372828536
 31
0.0
  0
LINE
  5
359
330
A
100
AcDbEntity
  8
50
  6
SOLID
 62
     7
100
AcDbLine
 10
2090.179017579
 20
1313.958615043
 30
0.0
 11
2064.814745492
 21
1219.29788551
 31
0.0
  0
LINE
  5
35A
330
A
100
AcDbEntity
  8
50
  6
SOLID
 62
     7
100
AcDbLine
 10
2093.006279913
 20
1092.687752772
 30
0.0
 11
2098.182661978
 21
1112.006269027
 31
0.0
  0
LINE
  5
35B
330
A
100
AcDbEntity
  8
50
  6
SOLID
 62
     7
100
AcDbLine
 10
2103.359044043
 20
1131.324785281
 30
0.0
 11
2101.910155327
 21
1131.713013935
 31
0.0
  0
LINE
  5
35C
330
A
100
AcDbEntity
  8
50
  6
SOLID
 62
     7
100
AcDbLine
 10
2164.865271953
 20
1373.662813466
 30
0.0
 11
2124.547683366
 21
1384.465881347
 31
0.0
  0
ARC
  5
35D
330
A
100
AcDbEntity
  8
50
  6
SOLID
 62
     7
100
AcDbCircle
 10
2125.798420798
 20
1311.661420908
 30
0.0
 40
4.0
100
AcDbArc
 50
284.999996581
 51
244.999996581
  0
CIRCLE
  5
35E
330
A
100
AcDbEntity
  8
50
  6
SOLID
 62
     7
100
AcDbCircle
 10
2125.798420798
 20
1311.661420908
 30
0.0
 40
3.5
  0
LINE
  5
35F
330
A
100
AcDbEntity
  8
50
  6
SOLID
 62
     7
100
AcDbLine
 10
2039.760641036
 20
1114.201815508
 30
0.0
 11
2047.487648788
 21
1112.131369527
 31
0.0
  0
CIRCLE
  5
360
330
A
100
AcDbEntity
  8
50
  6
SOLID
 62
     7
100
AcDbCircle
 10
2143.91575799
 20
1379.276227667
 30
0.0
 40
5.0
  0
ARC
  5
361
330
A
100
AcDbEntity
  8
50
  6
SOLID
 62
     7
100
AcDbCircle
 10
2143.91575799
 20
1379.276227667
 30
0.0
 40
6.0
100
AcDbArc
 50
89.999996581
 51
49.99999658100001
  0
ARC
  5
362
330
A
100
AcDbEntity
  8
50
  6
SOLID
 62
     7
100
AcDbCircle
 10
2111.909449655
 20
1294.600409313
 30
0.0
 40
3.0
100
AcDbArc
 50
50.85225666399999
 51
164.999996581
  0
LINE
  5
363
330
A
100
AcDbEntity
  8
50
  6
SOLID
 62
     7
100
AcDbLine
 10
2046.48993772
 20
1139.315886639
 30
0.0
 11
2054.216945472
 21
1137.245440657
 31
0.0
  0
ARC
  5
364
330
A
100
AcDbEntity
  8
50
  6
SOLID
 62
     7
100
AcDbCircle
 10
2129.29611425
 20
1289.941665463
 30
0.0
 40
3.0
100
AcDbArc
 50
344.999996581
 51
99.14773649799998
  0
LINE
  5
365
330
A
100
AcDbEntity
  8
50
  6
SOLID
 62
     7
100
AcDbLine
 10
2180.726492082
 20
1188.239419205
 30
0.0
 11
2135.950787265
 21
1021.134253769
 31
0.0
  0
LINE
  5
366
330
A
100
AcDbEntity
  8
50
  6
SOLID
 62
     7
100
AcDbLine
 10
2137.364999571
 20
1018.684764059
 30
0.0
 11
2167.308699707
 21
1010.661371874
 31
0.0
  0
LINE
  5
367
330
A
100
AcDbEntity
  8
50
  6
SOLID
 62
     7
100
AcDbLine
 10
2137.36500064
 20
1018.684763773
 30
0.0
 11
2135.950787224
 21
1021.1342536
 31
0.0
  0
LINE
  5
368
330
A
100
AcDbEntity
  8
50
  6
SOLID
 62
     7
100
AcDbLine
 10
2169.758190666
 20
1012.075584991
 30
0.0
 11
2167.308700839
 21
1010.661371575
 31
0.0
  0
LINE
  5
369
330
A
100
AcDbEntity
  8
50
  6
SOLID
 62
     7
100
AcDbLine
 10
2118.139400874
 20
1101.481963856
 30
0.0
 11
2116.725187457999
 21
1103.931453683
 31
0.0
  0
ARC
  5
36A
330
A
100
AcDbEntity
  8
50
  6
SOLID
 62
     7
100
AcDbCircle
 10
2148.720859642
 20
1088.111311801
 30
0.0
 40
5.0
100
AcDbArc
 50
-15.000003419
 51
74.99999658100001
  0
LINE
  5
36B
330
A
100
AcDbEntity
  8
50
  6
SOLID
 62
     7
100
AcDbLine
 10
2118.139399927001
 20
1101.48196411
 30
0.0
 11
2150.014951685
 21
1092.940933719
 31
0.0
  0
LINE
  5
36C
330
A
100
AcDbEntity
  8
50
  6
SOLID
 62
     7
100
AcDbLine
 10
2058.691567808
 20
1156.954775711
 30
0.0
 11
2059.090940233
 21
1145.774581299
 31
0.0
  0
LINE
  5
36D
330
A
100
AcDbEntity
  8
50
  6
SOLID
 62
     7
100
AcDbLine
 10
2106.561316472
 20
1144.128112153
 30
0.0
 11
2100.625351469
 21
1134.645466694
 31
0.0
  0
LINE
  5
36E
330
A
100
AcDbEntity
  8
50
  6
SOLID
 62
     7
100
AcDbLine
 10
2121.84220844
 20
1123.028431428
 30
0.0
 11
2116.725187465
 21
1103.931453725
 31
0.0
  0
LINE
  5
36F
330
A
100
AcDbEntity
  8
50
  6
SOLID
 62
     7
100
AcDbLine
 10
2214.533895484
 20
1179.180750432
 30
0.0
 11
2169.75819071
 21
1012.075585156
 31
0.0
  0
LINE
  5
370
330
A
100
AcDbEntity
  8
50
  6
SOLID
 62
     7
100
AcDbLine
 10
2151.795307318
 20
1312.089165429
 30
0.0
 11
2148.652695174
 21
1300.361188932
 31
0.0
  0
LINE
  5
371
330
A
100
AcDbEntity
  8
50
  6
SOLID
 62
     7
100
AcDbLine
 10
2081.384537121
 20
1339.091223343
 30
0.0
 11
2083.834026948
 21
1340.505436759
 31
0.0
  0
LINE
  5
372
330
A
100
AcDbEntity
  8
50
  6
SOLID
 62
     7
100
AcDbLine
 10
2081.384536985
 20
1339.09122338
 30
0.0
 11
2051.440836849
 21
1347.114615564
 31
0.0
  0
LINE
  5
373
330
A
100
AcDbEntity
  8
50
  6
SOLID
 62
     7
100
AcDbLine
 10
2051.440836927
 20
1347.114615543
 30
0.0
 11
2050.026623511
 21
1349.564105371
 31
0.0
  0
LINE
  5
374
330
A
100
AcDbEntity
  8
50
  6
SOLID
 62
     7
100
AcDbLine
 10
2103.498329373
 20
1325.03030498
 30
0.0
 11
2101.650107741
 21
1318.132409096
 31
0.0
  0
ARC
  5
375
330
A
100
AcDbEntity
  8
50
  6
SOLID
 62
     7
100
AcDbCircle
 10
2113.498412711
 20
1362.351594689
 30
0.0
 40
10.0
100
AcDbArc
 50
-29.99950401800001
 51
-14.999504018
  0
LINE
  5
376
330
A
100
AcDbEntity
  8
50
  6
SOLID
 62
     7
100
AcDbLine
 10
2180.726492082
 20
1188.239419205
 30
0.0
 11
2225.502196898
 21
1355.344584641
 31
0.0
  0
LINE
  5
377
330
A
100
AcDbEntity
  8
50
  6
CENTER
 62
     7
100
AcDbLine
 10
2154.940365943
 20
1303.853324249
 30
0.0
 11
2095.777486704
 21
1319.705973747
 31
0.0
  0
LINE
  5
378
330
A
100
AcDbEntity
  8
50
  6
SOLID
 62
     7
100
AcDbLine
 10
2214.533895569
 20
1179.180750751
 30
0.0
 11
2259.309600343
 21
1346.285916027
 31
0.0
  0
ARC
  5
379
330
A
100
AcDbEntity
  8
50
  6
SOLID
 62
     7
100
AcDbCircle
 10
2161.795229271
 20
1349.4107242
 30
0.0
 40
10.0
100
AcDbArc
 50
164.999996581
 51
179.999996581
  0
ARC
  5
37A
330
A
100
AcDbEntity
  8
50
  6
SOLID
 62
     7
100
AcDbCircle
 10
2074.740085155
 20
1155.882463964
 30
0.0
 40
3.0
100
AcDbArc
 50
164.999996581
 51
182.045816757
  0
LINE
  5
37B
330
A
100
AcDbEntity
  8
50
  6
SOLID
 62
     7
100
AcDbLine
 10
2071.842300058
 20
1156.658916798
 30
0.0
 11
2109.011669691
 21
1295.376859645
 31
0.0
  0
LINE
  5
37C
330
A
100
AcDbEntity
  8
50
  6
SOLID
 62
     7
100
AcDbLine
 10
2169.903221522
 20
1294.6671264
 30
0.0
 11
2167.453731695
 21
1293.252912984
 31
0.0
  0
ARC
  5
37D
330
A
100
AcDbEntity
  8
50
  6
SOLID
 62
     7
100
AcDbCircle
 10
2111.909454788
 20
1294.600406812
 30
0.0
 40
3.0
100
AcDbArc
 50
50.85225666399999
 51
164.999996581
  0
ARC
  5
37E
330
A
100
AcDbEntity
  8
50
  6
SOLID
 62
     7
100
AcDbCircle
 10
2203.072871217
 20
1290.955732079
 30
0.0
 40
5.0
100
AcDbArc
 50
254.999996581
 51
344.999996581
  0
LINE
  5
37F
330
A
100
AcDbEntity
  8
50
  6
SOLID
 62
     7
100
AcDbLine
 10
2169.903220575
 20
1294.667126654
 30
0.0
 11
2201.778772333
 21
1286.126096264
 31
0.0
  0
ARC
  5
380
330
A
100
AcDbEntity
  8
50
  6
SOLID
 62
     7
100
AcDbCircle
 10
2092.12674975
 20
1151.223720115
 30
0.0
 40
3.0
100
AcDbArc
 50
-32.045823594
 51
-15.000003419
  0
ARC
  5
381
330
A
100
AcDbEntity
  8
50
  6
SOLID
 62
     7
100
AcDbCircle
 10
2075.330553825
 20
1139.352643381
 30
0.0
 40
3.0
100
AcDbArc
 50
182.045816757
 51
254.999996581
  0
ARC
  5
382
330
A
100
AcDbEntity
  8
50
  6
SOLID
 62
     7
100
AcDbCircle
 10
2083.350476916
 20
1137.203710952
 30
0.0
 40
3.0
100
AcDbArc
 50
-105.000003419
 51
-32.045823594
  0
LINE
  5
383
330
A
100
AcDbEntity
  8
50
  6
SOLID
 62
     7
100
AcDbLine
 10
2074.554087878
 20
1136.454861368
 30
0.0
 11
2082.574010969
 21
1134.305928939
 31
0.0
  0
ARC
  5
384
330
A
100
AcDbEntity
  8
50
  6
SOLID
 62
     7
100
AcDbCircle
 10
2019.772991555
 20
1157.449831869
 30
0.0
 40
2.0
100
AcDbArc
 50
164.999996581
 51
251.999996581
  0
LINE
  5
385
330
A
100
AcDbEntity
  8
50
  6
SOLID
 62
     7
100
AcDbLine
 10
2054.338075543
 20
1346.33848022
 30
0.0
 11
2051.440715812001
 21
1347.114825321
 31
0.0
  0
LINE
  5
386
330
A
100
AcDbEntity
  8
50
  6
SOLID
 62
     7
100
AcDbLine
 10
2043.125289378
 20
1126.758851073
 30
0.0
 11
2038.440127689
 21
1109.273593781
 31
0.0
  0
LINE
  5
387
330
A
100
AcDbEntity
  8
50
  6
SOLID
 62
     7
100
AcDbLine
 10
2036.092452508
 20
1107.834936585
 30
0.0
 11
1995.830216405
 21
1116.392941567
 31
0.0
  0
ARC
  5
388
330
A
100
AcDbEntity
  8
50
  6
SOLID
 62
     7
100
AcDbCircle
 10
2036.508278686
 20
1109.79123914
 30
0.0
 40
2.0
100
AcDbArc
 50
257.999996581
 51
344.999996581
  0
ARC
  5
389
330
A
100
AcDbEntity
  8
50
  6
SOLID
 62
     7
100
AcDbCircle
 10
2045.878602165
 20
1144.761754099
 30
0.0
 40
2.0
100
AcDbArc
 50
-15.000003419
 51
71.99999658100001
  0
LINE
  5
38A
330
A
100
AcDbEntity
  8
50
  6
SOLID
 62
     7
100
AcDbLine
 10
2043.125289378
 20
1126.758851073
 30
0.0
 11
2047.810451067
 21
1144.244108366
 31
0.0
  0
LINE
  5
38B
330
A
100
AcDbEntity
  8
50
  6
SOLID
 62
     7
100
AcDbLine
 10
2046.496633608
 20
1146.663859792
 30
0.0
 11
2019.154954793
 21
1155.54771157
 31
0.0
  0
LINE
  5
38C
330
A
100
AcDbEntity
  8
50
  6
SOLID
 62
     7
100
AcDbLine
 10
2017.841137169
 20
1157.967462624
 30
0.0
 11
2036.32039689
 21
1226.932982331
 31
0.0
  0
LINE
  5
38D
330
A
100
AcDbEntity
  8
50
  6
CENTER
 62
     7
100
AcDbLine
 10
2106.10502962
 20
1316.938242776
 30
0.0
 11
2155.819468255
 21
1303.617295912
 31
0.0
  0
LINE
  5
38E
330
A
100
AcDbEntity
  8
50
  6
SOLID
 62
     7
100
AcDbLine
 10
2071.741989608
 20
1155.775363231
 30
0.0
 11
2072.332458278
 21
1139.245542648
 31
0.0
  0
LINE
  5
38F
330
A
100
AcDbEntity
  8
50
  6
SOLID
 62
     7
100
AcDbLine
 10
2036.320396891
 20
1226.932982331
 30
0.0
 11
2067.378689279
 21
1342.844079857
 31
0.0
  0
LINE
  5
390
330
A
100
AcDbEntity
  8
50
  6
SOLID
 62
     7
100
AcDbLine
 10
2094.66961408
 20
1149.631923302
 30
0.0
 11
2085.893341247
 21
1135.61191414
 31
0.0
  0
ARC
  5
391
330
A
100
AcDbEntity
  8
50
  6
SOLID
 62
     7
100
AcDbCircle
 10
2128.795227686
 20
1322.845995506
 30
0.0
 40
23.0
100
AcDbArc
 50
-0.000003419
 51
150.000495982
  0
ARC
  5
392
330
A
100
AcDbEntity
  8
50
  6
SOLID
 62
     7
100
AcDbCircle
 10
2129.296119383
 20
1289.941662962
 30
0.0
 40
3.0
100
AcDbArc
 50
-15.000003419
 51
99.14773649799998
  0
LINE
  5
393
330
A
100
AcDbEntity
  8
50
  6
SOLID
 62
     7
100
AcDbLine
 10
2108.325719893
 20
1333.391757784
 30
0.0
 11
2092.420360018
 21
1340.808550055
 31
0.0
  0
CIRCLE
  5
394
330
A
100
AcDbEntity
  8
50
  6
SOLID
 62
     7
100
AcDbCircle
 10
2125.798544312
 20
1311.661860213
 30
0.0
 40
19.0
  0
ARC
  5
395
330
A
100
AcDbEntity
  8
50
  6
SOLID
 62
     7
100
AcDbCircle
 10
2143.915763122
 20
1379.276225166
 30
0.0
 40
6.0
100
AcDbArc
 50
-260.000003419
 51
59.99999658100001
  0
CIRCLE
  5
396
330
A
100
AcDbEntity
  8
50
  6
SOLID
 62
     7
100
AcDbCircle
 10
2143.915763122
 20
1379.276225166
 30
0.0
 40
5.0
  0
ARC
  5
397
330
A
100
AcDbEntity
  8
50
  6
SOLID
 62
     7
100
AcDbCircle
 10
2143.915962485
 20
1379.276171747
 30
0.0
 40
15.0
100
AcDbArc
 50
344.999996581
 51
164.999996581
  0
ARC
  5
398
330
A
100
AcDbEntity
  8
50
  6
SOLID
 62
     7
100
AcDbCircle
 10
2102.973286842
 20
1135.569260313999
 30
0.0
 40
1.5
100
AcDbArc
 50
147.954176406
 51
254.999996581
  0
LINE
  5
399
330
A
100
AcDbEntity
  8
50
  6
SOLID
 62
     7
100
AcDbLine
 10
2100.625351469
 20
1134.645466694
 30
0.0
 11
2095.483634773
 21
1126.43162506
 31
0.0
  0
LINE
  5
39A
330
A
100
AcDbEntity
  8
50
  6
SOLID
 62
     7
100
AcDbLine
 10
2149.946965495
 20
1305.191301975
 30
0.0
 11
2107.152814227
 21
1145.48696136
 31
0.0
  0
ARC
  5
39B
330
A
100
AcDbEntity
  8
50
  6
SOLID
 62
     7
100
AcDbCircle
 10
2102.3232041
 20
1146.781103659
 30
0.0
 40
5.0
100
AcDbArc
 50
-32.045823594
 51
-15.00050282
  0
ARC
  5
39C
330
A
100
AcDbEntity
  8
50
  6
SOLID
 62
     7
100
AcDbCircle
 10
2057.519477618
 20
1147.748574695
 30
0.0
 40
1.5
100
AcDbArc
 50
254.999996581
 51
2.045816756999999
  0
ARC
  5
39D
330
A
100
AcDbEntity
  8
50
  6
SOLID
 62
     7
100
AcDbCircle
 10
2063.68838858
 20
1157.133273748
 30
0.0
 40
5.0
100
AcDbArc
 50
165.000495982
 51
182.045816757
  0
ARC
  5
39E
330
A
100
AcDbEntity
  8
1
  6
L_DASH
 62
     7
100
AcDbCircle
 10
1689.282087834
 20
1189.409451374
 30
0.0
 40
4.0
100
AcDbArc
 50
164.999993162
 51
244.641728422
  0
LINE
  5
39F
330
A
100
AcDbEntity
  8
1
  6
L_DASH
 62
     7
100
AcDbLine
 10
1685.418384642999
 20
1190.444727996
 30
0.0
 11
1718.046456833
 21
1312.214293036
 31
0.0
  0
LINE
  5
3A0
330
A
100
AcDbEntity
  8
1
  6
L_DASH
 62
     7
100
AcDbLine
 10
1698.888867143
 20
1182.761705326
 30
0.0
 11
1688.028683926
 21
1185.671684038
 31
0.0
  0
LINE
  5
3A1
330
A
100
AcDbEntity
  8
50
  6
SOLID
 62
     7
100
AcDbLine
 10
2059.090940233
 20
1145.774581299
 30
0.0
 11
2059.436875539
 21
1136.090327392
 31
0.0
  0
LINE
  5
3A2
330
A
100
AcDbEntity
  8
50
  6
SOLID
 62
     7
100
AcDbLine
 10
2101.080439416
 20
1111.229811717
 30
0.0
 11
2105.480364153
 21
1127.650550464
 31
0.0
  0
LINE
  5
3A3
330
A
100
AcDbEntity
  8
50
  6
SOLID
 62
     7
100
AcDbLine
 10
2105.480364166
 20
1127.650550535
 30
0.0
 11
2102.582586733
 21
1128.427007843
 31
0.0
  0
LINE
  5
3A4
330
A
100
AcDbEntity
  8
50
  6
SOLID
 62
     7
100
AcDbLine
 10
2096.680514655
 20
1094.809072902
 30
0.0
 11
2093.782737223
 21
1095.58553021
 31
0.0
  0
LINE
  5
3A5
330
A
100
AcDbEntity
  8
50
  6
SOLID
 62
     7
100
AcDbLine
 10
2099.575402668
 20
1105.612939441
 30
0.0
 11
2100.734504118
 21
1105.30235907
 31
0.0
  0
LINE
  5
3A6
330
A
100
AcDbEntity
  8
50
  6
SOLID
 62
     7
100
AcDbLine
 10
2103.744570319
 20
1116.536076382
 30
0.0
 11
2102.585468869
 21
1116.846656754
 31
0.0
  0
LINE
  5
3A7
330
A
100
AcDbEntity
  8
50
  6
SOLID
 62
     7
100
AcDbLine
 10
2108.429509393
 20
1115.088360132
 30
0.0
 11
2105.515638373
 21
1104.213648034
 31
0.0
  0
LINE
  5
3A8
330
A
100
AcDbEntity
  8
1
  6
L_DASH
 62
     7
100
AcDbLine
 10
1751.175295133
 20
1435.852741751
 30
0.0
 11
1718.046456833
 21
1312.214293036
 31
0.0
  0
ARC
  5
3A9
330
A
100
AcDbEntity
  8
1
  6
SOLID
 62
     7
100
AcDbCircle
 10
1753.107146734
 20
1435.335103449
 30
0.0
 40
2.0
100
AcDbArc
 50
74.999993162
 51
164.999993162
  0
LINE
  5
3AA
330
A
100
AcDbEntity
  8
1
  6
SOLID
 62
     7
100
AcDbLine
 10
1766.181820385
 20
1433.902305936
 30
0.0
 11
1753.624785044
 21
1437.266955021
 31
0.0
  0
ARC
  5
3AB
330
A
100
AcDbEntity
  8
50
  6
SOLID
 62
     7
100
AcDbCircle
 10
2105.220156269
 20
1115.948311959
 30
0.0
 40
3.322569528999999
100
AcDbArc
 50
310.615747427
 51
19.384245735
  0
LINE
  5
3AC
330
A
100
AcDbEntity
  8
50
  6
SOLID
 62
     7
100
AcDbLine
 10
2107.383089586
 20
1113.426167259
 30
0.0
 11
2103.210827569
 21
1114.544121763
 31
0.0
  0
ARC
  5
3AD
330
A
100
AcDbEntity
  8
50
  6
SOLID
 62
     7
100
AcDbCircle
 10
2094.976315713
 20
1112.865400584
 30
0.0
 40
12.419443168
100
AcDbArc
 50
327.412041905
 51
2.587951256999999
  0
LINE
  5
3AE
330
A
100
AcDbEntity
  8
50
  6
SOLID
 62
     7
100
AcDbLine
 10
2105.440508902
 20
1106.176359179
 30
0.0
 11
2101.268246885
 21
1107.294313684
 31
0.0
  0
ARC
  5
3AF
330
A
100
AcDbEntity
  8
50
  6
SOLID
 62
     7
100
AcDbCircle
 10
2102.306285248999
 20
1105.073599862
 30
0.0
 40
3.322569528999999
100
AcDbArc
 50
310.615747427
 51
19.384245735
  0
LINE
  5
3B0
330
A
100
AcDbEntity
  8
50
  6
SOLID
 62
     7
100
AcDbLine
 10
2100.296956535
 20
1103.669409647
 30
0.0
 11
2104.469218552
 21
1102.551455142
 31
0.0
  0
LINE
  5
3B1
330
A
100
AcDbEntity
  8
50
  6
SOLID
 62
     7
100
AcDbLine
 10
2104.182117903
 20
1118.169025805
 30
0.0
 11
2100.296956543
 21
1103.669409675
 31
0.0
  0
LINE
  5
3B2
330
A
100
AcDbEntity
  8
50
  6
SOLID
 62
     7
100
AcDbLine
 10
2108.354379928
 20
1117.051071298
 30
0.0
 11
2104.182117911
 21
1118.169025803
 31
0.0
  0
LINE
  5
3B3
330
A
100
AcDbEntity
  8
1
  6
L_DASH
 62
     7
100
AcDbLine
 10
1672.267681146
 20
1114.319626685
 30
0.0
 11
1675.165458625
 21
1113.543169549
 31
0.0
  0
ARC
  5
3B4
330
A
100
AcDbEntity
  8
1
  6
L_DASH
 62
     7
100
AcDbCircle
 10
1675.42427767
 20
1114.509095376
 30
0.0
 40
1.0
100
AcDbArc
 50
255.0
 51
345.0
  0
LINE
  5
3B5
330
A
100
AcDbEntity
  8
1
  6
L_DASH
 62
     7
100
AcDbLine
 10
1676.390203496
 20
1114.250276331
 30
0.0
 11
1682.601860578
 21
1137.432496162
 31
0.0
  0
ARC
  5
3B6
330
A
100
AcDbEntity
  8
1
  6
L_DASH
 62
     7
100
AcDbCircle
 10
1681.635934752
 20
1137.691315207
 30
0.0
 40
1.0
100
AcDbArc
 50
345.0
 51
75.0
  0
LINE
  5
3B7
330
A
100
AcDbEntity
  8
1
  6
L_DASH
 62
     7
100
AcDbLine
 10
1678.996976318
 20
1139.433698168
 30
0.0
 11
1681.894753797
 21
1138.657241033
 31
0.0
  0
LINE
  5
3B8
330
A
100
AcDbEntity
  8
1
  6
L_DASH
 62
     7
100
AcDbLine
 10
1665.737524166
 20
1089.948775498
 30
0.0
 11
1689.867358185
 21
1180.002542035
 31
0.0
  0
LINE
  5
3B9
330
A
100
AcDbEntity
  8
50
  6
SOLID
 62
     7
100
AcDbLine
 10
2096.68051466
 20
1094.809072895
 30
0.0
 11
2101.080439416
 21
1111.229811717
 31
0.0
  0
LINE
  5
3BA
330
A
100
AcDbEntity
  8
50
  6
SOLID
 62
     7
100
AcDbLine
 10
2103.359044038
 20
1131.324785262
 30
0.0
 11
2098.182661978
 21
1112.006269027
 31
0.0
  0
LINE
  5
3BB
330
A
100
AcDbEntity
  8
50
  6
SOLID
 62
     7
100
AcDbLine
 10
2210.994677667
 20
1397.795959517
 30
0.0
 11
2201.871304296
 21
1363.747074684
 31
0.0
  0
LINE
  5
3BC
330
A
100
AcDbEntity
  8
50
  6
SOLID
 62
     7
100
AcDbLine
 10
2166.039518277
 20
1295.702402812
 30
0.0
 11
2148.652695224
 21
1300.36118912
 31
0.0
  0
LINE
  5
3BD
330
A
100
AcDbEntity
  8
50
  6
SOLID
 62
     7
100
AcDbLine
 10
2203.008452117
 20
1399.797162008
 30
0.0
 11
2200.61869846
 21
1398.891935844
 31
0.0
  0
LINE
  5
3BE
330
A
100
AcDbEntity
  8
50
  6
SOLID
 62
     7
100
AcDbLine
 10
2192.747930888
 20
1329.698189724
 30
0.0
 11
2185.279343442
 21
1331.699392177
 31
0.0
  0
ARC
  5
3BF
330
A
100
AcDbEntity
  8
50
  6
SOLID
 62
     7
100
AcDbCircle
 10
-2185.538164926001
 20
1332.665324934
 30
0.0
 40
1.0
210
0.0
220
0.0
230
-1.0
100
AcDbArc
 50
285.000003419
 51
315.000003419
  0
LINE
  5
3C0
330
A
100
AcDbEntity
  8
50
  6
SOLID
 62
     7
100
AcDbLine
 10
2184.831055708
 20
1331.958211253
 30
0.0
 11
2183.214081651
 21
1333.937037128
 31
0.0
  0
ARC
  5
3C1
330
A
100
AcDbEntity
  8
50
  6
SOLID
 62
     7
100
AcDbCircle
 10
2143.91575799
 20
1379.276227667
 30
0.0
 40
50.0
100
AcDbArc
 50
181.260719179
 51
203.255429945
  0
ARC
  5
3C2
330
A
100
AcDbEntity
  8
50
  6
SOLID
 62
     7
100
AcDbCircle
 10
2143.91575799
 20
1379.276227667
 30
0.0
 40
50.0
100
AcDbArc
 50
306.744563217
 51
24.881977548
  0
LINE
  5
3C3
330
A
100
AcDbEntity
  8
50
  6
SOLID
 62
     7
100
AcDbLine
 10
2193.330273872
 20
1331.871522803
 30
0.0
 11
2192.747930891
 21
1329.698189728
 31
0.0
  0
ARC
  5
3C4
330
A
100
AcDbEntity
  8
50
  6
SOLID
 62
     7
100
AcDbCircle
 10
2097.059310054
 20
1359.139848431
 30
0.0
 40
1.0
100
AcDbArc
 50
296.627709898
 51
23.255423214
  0
ARC
  5
3C5
330
A
100
AcDbEntity
  8
50
  6
SOLID
 62
     7
100
AcDbCircle
 10
2099.7484589
 20
1353.776222933
 30
0.0
 40
5.0
100
AcDbArc
 50
116.627709898
 51
254.999996581
  0
LINE
  5
3C6
330
A
100
AcDbEntity
  8
50
  6
SOLID
 62
     7
100
AcDbLine
 10
2098.454360825
 20
1348.94658697
 30
0.0
 11
2105.430623112
 21
1347.077302677
 31
0.0
  0
ARC
  5
3C7
330
A
100
AcDbEntity
  8
50
  6
SOLID
 62
     7
100
AcDbCircle
 10
2174.426437738
 20
1338.4093841
 30
0.0
 40
1.0
100
AcDbArc
 50
126.744569948
 51
213.372283265
  0
ARC
  5
3C8
330
A
100
AcDbEntity
  8
50
  6
SOLID
 62
     7
100
AcDbCircle
 10
2169.41575338
 20
1335.108923183
 30
0.0
 40
5.0
100
AcDbArc
 50
254.999996581
 51
33.372283265
  0
LINE
  5
3C9
330
A
100
AcDbEntity
  8
50
  6
SOLID
 62
     7
100
AcDbLine
 10
2168.121655439
 20
1330.279287183
 30
0.0
 11
2161.145393151
 21
1332.148571476
 31
0.0
  0
ARC
  5
3CA
330
A
100
AcDbEntity
  8
50
  6
SOLID
 62
     7
100
AcDbCircle
 10
2190.772201976
 20
1399.412592164
 30
0.0
 40
1.0
100
AcDbArc
 50
116.627709898
 51
203.255423214
  0
ARC
  5
3CB
330
A
100
AcDbEntity
  8
50
  6
SOLID
 62
     7
100
AcDbCircle
 10
2188.08305313
 20
1404.776217662
 30
0.0
 40
5.0
100
AcDbArc
 50
-63.37229010200001
 51
74.99999658100001
  0
LINE
  5
3CC
330
A
100
AcDbEntity
  8
50
  6
SOLID
 62
     7
100
AcDbLine
 10
2189.377146258
 20
1409.605839925
 30
0.0
 11
2182.40088397
 21
1411.475124217
 31
0.0
  0
ARC
  5
3CD
330
A
100
AcDbEntity
  8
50
  6
SOLID
 62
     7
100
AcDbCircle
 10
2183.077438783
 20
1413.105582634
 30
0.0
 40
1.75
100
AcDbArc
 50
220.821706331
 51
254.999996581
  0
ARC
  5
3CE
330
A
100
AcDbEntity
  8
50
  6
SOLID
 62
     7
100
AcDbCircle
 10
2160.916059441
 20
1330.398295524
 30
0.0
 40
1.75
100
AcDbArc
 50
74.99999658100001
 51
109.178256759
  0
ARC
  5
3CF
330
A
100
AcDbEntity
  8
50
  6
SOLID
 62
     7
100
AcDbCircle
 10
2104.754094953
 20
1345.446852146
 30
0.0
 40
1.75
100
AcDbArc
 50
40.821736403
 51
74.99999658100001
  0
LINE
  5
3D0
330
A
100
AcDbEntity
  8
50
  6
SOLID
 62
     7
100
AcDbLine
 10
2210.994677666
 20
1397.795959521
 30
0.0
 11
2203.526090221
 21
1399.797161974
 31
0.0
  0
ARC
  5
3D1
330
A
100
AcDbEntity
  8
50
  6
SOLID
 62
     7
100
AcDbCircle
 10
-2203.267273463
 20
1398.831242977
 30
0.0
 40
1.0
210
0.0
220
0.0
230
-1.0
100
AcDbArc
 50
75.00000341899999
 51
105.000003419
  0
LINE
  5
3D2
330
A
100
AcDbEntity
  8
50
  6
SOLID
 62
     7
100
AcDbLine
 10
2026.614658387
 20
1190.710681754
 30
0.0
 11
2055.109115894
 21
1183.075678916
 31
0.0
  0
LINE
  5
3D3
330
A
100
AcDbEntity
  8
50
  6
SOLID
 62
     7
100
AcDbLine
 10
2045.444297871
 20
1147.005784469
 30
0.0
 11
2064.81475415
 21
1219.297917823
 31
0.0
  0
LINE
  5
3D4
330
A
100
AcDbEntity
  8
50
  6
SOLID
 62
     7
100
AcDbLine
 10
2114.275958125
 20
1102.517379248
 30
0.0
 11
2116.725444903
 21
1103.931597947
 31
0.0
  0
LINE
  5
3D5
330
A
100
AcDbEntity
  8
50
  6
SOLID
 62
     7
100
AcDbLine
 10
2114.275958131
 20
1102.517379246
 30
0.0
 11
2105.678396532
 21
1104.821069611
 31
0.0
  0
LINE
  5
3D6
330
A
100
AcDbEntity
  8
50
  6
SOLID
 62
     7
100
AcDbLine
 10
2142.089512884
 20
1198.592382295
 30
0.0
 11
2116.725444957
 21
1103.931598133
 31
0.0
  0
LINE
  5
3D7
330
A
100
AcDbEntity
  8
50
  6
SOLID
 62
     7
100
AcDbLine
 10
2095.024519563
 20
1150.44725832
 30
0.0
 11
2132.193889196
 21
1289.165201168
 31
0.0
  0
ARC
  5
3D8
330
A
100
AcDbEntity
  8
50
  6
SOLID
 62
     7
100
AcDbCircle
 10
2143.91575799
 20
1379.276227667
 30
0.0
 40
60.0
100
AcDbArc
 50
-82.453870977
 51
-49.327460825
  0
ARC
  5
3D9
330
A
100
AcDbEntity
  8
50
  6
SOLID
 62
     7
100
AcDbCircle
 10
2143.915756798
 20
1379.276227987
 30
0.0
 40
50.0
100
AcDbArc
 50
220.821736403
 51
230.932997862
  0
LINE
  5
3DA
330
A
100
AcDbEntity
  8
50
  6
SOLID
 62
     7
100
AcDbLine
 10
2210.412334686
 20
1395.622626442
 30
0.0
 11
2210.994677667
 21
1397.795959517
 31
0.0
  0
LINE
  5
3DB
330
A
100
AcDbEntity
  8
50
  6
SOLID
 62
     7
100
AcDbLine
 10
2057.235798508
 20
1345.561859897
 30
0.0
 11
2026.177401205
 21
1229.650860908
 31
0.0
  0
ARC
  5
3DC
330
A
100
AcDbEntity
  8
50
  6
SOLID
 62
     7
100
AcDbCircle
 10
2143.91575799
 20
1379.276227667
 30
0.0
 40
50.0
100
AcDbArc
 50
279.0669953
 51
289.178256759
  0
LINE
  5
3DD
330
A
100
AcDbEntity
  8
50
  6
SOLID
 62
     7
100
AcDbLine
 10
2201.871304296
 20
1363.747074684
 30
0.0
 11
2193.330273905
 21
1331.871522926
 31
0.0
  0
LINE
  5
3DE
330
A
100
AcDbEntity
  8
50
  6
SOLID
 62
     7
100
AcDbLine
 10
2004.016236471
 20
1282.176301411
 30
0.0
 11
2037.823640932
 21
1273.11763685
 31
0.0
  0
LINE
  5
3DF
330
A
100
AcDbEntity
  8
50
  6
SOLID
 62
     7
100
AcDbLine
 10
1941.484902667
 20
1241.991328795
 30
0.0
 11
1989.781194754
 21
1229.050379422
 31
0.0
  0
LINE
  5
3E0
330
A
100
AcDbEntity
  8
50
  6
SOLID
 62
     7
100
AcDbLine
 10
1938.896712793
 20
1232.332070377
 30
0.0
 11
1987.193004879
 21
1219.391121004
 31
0.0
  0
LINE
  5
3E1
330
A
100
AcDbEntity
  8
50
  6
SOLID
 62
     7
100
AcDbLine
 10
1936.308522918
 20
1222.67281196
 30
0.0
 11
1984.604815005
 21
1209.731862586
 31
0.0
  0
LINE
  5
3E2
330
A
100
AcDbEntity
  8
50
  6
SOLID
 62
     7
100
AcDbLine
 10
1933.720333043
 20
1213.013553543
 30
0.0
 11
1982.01662513
 21
1200.072604169
 31
0.0
  0
LINE
  5
3E3
330
A
100
AcDbEntity
  8
50
  6
SOLID
 62
     7
100
AcDbLine
 10
1931.132143169
 20
1203.354295126
 30
0.0
 11
1979.428435255
 21
1190.413345752
 31
0.0
  0
LINE
  5
3E4
330
A
100
AcDbEntity
  8
50
  6
SOLID
 62
     7
100
AcDbLine
 10
1928.543953294
 20
1193.695036708
 30
0.0
 11
1976.840245381
 21
1180.754087334
 31
0.0
  0
LINE
  5
3E5
330
A
100
AcDbEntity
  8
50
  6
SOLID
 62
     7
100
AcDbLine
 10
1925.955763419
 20
1184.035778291
 30
0.0
 11
1974.252055506
 21
1171.094828917
 31
0.0
  0
LINE
  5
3E6
330
A
100
AcDbEntity
  8
50
  6
SOLID
 62
     7
100
AcDbLine
 10
1923.367573545
 20
1174.376519873
 30
0.0
 11
1971.663865631
 21
1161.4355705
 31
0.0
  0
LINE
  5
3E7
330
A
100
AcDbEntity
  8
50
  6
SOLID
 62
     7
100
AcDbLine
 10
1930.43864147
 20
1162.129069276
 30
0.0
 11
1953.732355668
 21
1249.062435658
 31
0.0
  0
LINE
  5
3E8
330
A
100
AcDbEntity
  8
50
  6
SOLID
 62
     7
100
AcDbLine
 10
1940.097900041
 20
1159.540879978
 30
0.0
 11
1963.391614239
 21
1246.474246359
 31
0.0
  0
LINE
  5
3E9
330
A
100
AcDbEntity
  8
50
  6
SOLID
 62
     7
100
AcDbLine
 10
1949.757158613
 20
1156.952690679
 30
0.0
 11
1973.050872811
 21
1243.886057061
 31
0.0
  0
LINE
  5
3EA
330
A
100
AcDbEntity
  8
50
  6
SOLID
 62
     7
100
AcDbLine
 10
1959.416417185
 20
1154.364501381
 30
0.0
 11
1982.710131383
 21
1241.297867763
 31
0.0
  0
LINE
  5
3EB
330
A
100
AcDbEntity
  8
50
  6
SOLID
 62
     7
100
AcDbLine
 10
1920.77938367
 20
1164.717261456
 30
0.0
 11
1969.075675757
 21
1151.776312082
 31
0.0
  0
LINE
  5
3EC
330
A
100
AcDbEntity
  8
50
  6
SOLID
 62
     7
100
AcDbLine
 10
1969.075675757
 20
1151.776312083
 30
0.0
 11
1992.369389955
 21
1238.709678464
 31
0.0
  0
LINE
  5
3ED
330
A
100
AcDbEntity
  8
50
  6
SOLID
 62
     7
100
AcDbLine
 10
1980.722522412
 20
1195.242977045
 30
0.0
 11
2014.529926872
 21
1186.184312484
 31
0.0
  0
LINE
  5
3EE
330
A
100
AcDbEntity
  8
50
  6
SOLID
 62
     7
100
AcDbLine
 10
1946.661282417
 20
1261.309845629
 30
0.0
 11
1994.957574503
 21
1248.368896256
 31
0.0
  0
LINE
  5
3EF
330
A
100
AcDbEntity
  8
50
  6
SOLID
 62
     7
100
AcDbLine
 10
1949.249472291
 20
1270.969104046
 30
0.0
 11
1997.545764378
 21
1258.028154673
 31
0.0
  0
LINE
  5
3F0
330
A
100
AcDbEntity
  8
50
  6
SOLID
 62
     7
100
AcDbLine
 10
1951.837662166
 20
1280.628362464
 30
0.0
 11
2000.133954252
 21
1267.68741309
 31
0.0
  0
LINE
  5
3F1
330
A
100
AcDbEntity
  8
50
  6
SOLID
 62
     7
100
AcDbLine
 10
1954.425852041
 20
1290.287620881
 30
0.0
 11
2002.722144127
 21
1277.346671508
 31
0.0
  0
LINE
  5
3F2
330
A
100
AcDbEntity
  8
50
  6
SOLID
 62
     7
100
AcDbLine
 10
1957.014041915
 20
1299.946879299
 30
0.0
 11
2005.310334002
 21
1287.005929925
 31
0.0
  0
LINE
  5
3F3
330
A
100
AcDbEntity
  8
50
  6
SOLID
 62
     7
100
AcDbLine
 10
1959.60223179
 20
1309.606137716
 30
0.0
 11
2007.898523877
 21
1296.665188343
 31
0.0
  0
LINE
  5
3F4
330
A
100
AcDbEntity
  8
50
  6
SOLID
 62
     7
100
AcDbLine
 10
1962.190421665
 20
1319.265396133
 30
0.0
 11
2010.486713751
 21
1306.32444676
 31
0.0
  0
LINE
  5
3F5
330
A
100
AcDbEntity
  8
50
  6
SOLID
 62
     7
100
AcDbLine
 10
1964.778611539
 20
1328.924654551
 30
0.0
 11
2013.074903626
 21
1315.983705177
 31
0.0
  0
LINE
  5
3F6
330
A
100
AcDbEntity
  8
50
  6
SOLID
 62
     7
100
AcDbLine
 10
1977.026060449
 20
1335.995725399
 30
0.0
 11
1953.732335877
 21
1249.062361797
 31
0.0
  0
LINE
  5
3F7
330
A
100
AcDbEntity
  8
50
  6
SOLID
 62
     7
100
AcDbLine
 10
1986.685318712
 20
1333.407534948
 30
0.0
 11
1963.391594139
 21
1246.474171346
 31
0.0
  0
LINE
  5
3F8
330
A
100
AcDbEntity
  8
50
  6
SOLID
 62
     7
100
AcDbLine
 10
1996.344576975
 20
1330.819344497
 30
0.0
 11
1973.050852402
 21
1243.885980895
 31
0.0
  0
LINE
  5
3F9
330
A
100
AcDbEntity
  8
50
  6
SOLID
 62
     7
100
AcDbLine
 10
1967.366801414
 20
1338.583912968
 30
0.0
 11
2015.663093501
 21
1325.642963595
 31
0.0
  0
LINE
  5
3FA
330
A
100
AcDbEntity
  8
50
  6
SOLID
 62
     7
100
AcDbLine
 10
1967.366801414
 20
1338.583912968
 30
0.0
 11
1944.073077614
 21
1251.650552248
 31
0.0
  0
LINE
  5
3FB
330
A
100
AcDbEntity
  8
50
  6
SOLID
 62
     7
100
AcDbLine
 10
2006.003835238
 20
1328.231154046
 30
0.0
 11
1982.710110665
 21
1241.297790444
 31
0.0
  0
LINE
  5
3FC
330
A
100
AcDbEntity
  8
50
  6
SOLID
 62
     7
100
AcDbLine
 10
2015.663093501
 20
1325.642963595
 30
0.0
 11
1992.369368928
 21
1238.709599993
 31
0.0
  0
LINE
  5
3FD
330
A
100
AcDbEntity
  8
50
  6
SOLID
 62
     7
100
AcDbLine
 10
1992.369375828
 20
1238.709625742
 30
0.0
 11
1944.073085285
 21
1251.650580879
 31
0.0
  0
LINE
  5
3FE
330
A
100
AcDbEntity
  8
50
  6
SOLID
 62
     7
100
AcDbLine
 10
1697.077112477
 20
1176.000084924
 30
0.0
 11
1732.535321656
 21
1308.331923125
 31
0.0
  0
LINE
  5
3FF
330
A
100
AcDbEntity
  8
50
  6
SOLID
 62
     7
100
AcDbLine
 10
1700.367761181
 20
1172.826003621
 30
0.0
 11
1690.532637467
 21
1136.120822222
 31
0.0
  0
LINE
  5
400
330
A
100
AcDbEntity
  8
50
  6
SOLID
 62
     7
100
AcDbLine
 10
1861.558287397
 20
1131.927716936
 30
0.0
 11
1745.647188242
 21
1162.986002348
 31
0.0
  0
LINE
  5
401
330
A
100
AcDbEntity
  8
50
  6
SOLID
 62
     7
100
AcDbLine
 10
1700.367761181
 20
1172.826003621
 30
0.0
 11
1866.507003302
 21
1128.309127864
 31
0.0
  0
LINE
  5
402
330
A
100
AcDbEntity
  8
50
  6
SOLID
 62
     7
100
AcDbLine
 10
1856.671879589
 20
1091.603946465
 30
0.0
 11
1690.532637467
 21
1136.120822222
 31
0.0
  0
LINE
  5
403
330
A
100
AcDbEntity
  8
50
  6
SOLID
 62
     7
100
AcDbLine
 10
1853.307232002
 20
1079.046910723
 30
0.0
 11
1687.167989881
 21
1123.563786481
 31
0.0
  0
LINE
  5
404
330
A
100
AcDbEntity
  8
50
  6
SOLID
 62
     7
100
AcDbLine
 10
1866.507003302
 20
1128.309127864
 30
0.0
 11
1856.671879589
 21
1091.603946465
 31
0.0
  0
LINE
  5
405
330
A
100
AcDbEntity
  8
50
  6
SOLID
 62
     7
100
AcDbLine
 10
1853.307232002
 20
1079.046910723
 30
0.0
 11
1856.671879589
 21
1091.603946465
 31
0.0
  0
LINE
  5
406
330
A
100
AcDbEntity
  8
50
  6
SOLID
 62
     7
100
AcDbLine
 10
1687.167989881
 20
1123.563786481
 30
0.0
 11
1690.532637467
 21
1136.120822222
 31
0.0
  0
LINE
  5
407
330
A
100
AcDbEntity
  8
50
  6
SOLID
 62
     7
100
AcDbLine
 10
1709.755395846
 20
1199.034788677
 30
0.0
 11
1703.684652998
 21
1200.661017509
 31
0.0
  0
LINE
  5
408
330
A
100
AcDbEntity
  8
50
  6
SOLID
 62
     7
100
AcDbLine
 10
1702.489219032
 20
1196.19959721
 30
0.0
 11
1708.560250992
 21
1194.573290931
 31
0.0
  0
ARC
  5
409
330
A
100
AcDbEntity
  8
50
  6
SOLID
 62
     7
100
AcDbCircle
 10
1705.898034176
 20
1197.677333896
 30
0.0
 40
4.089315873
100
AcDbArc
 50
310.619462654
 51
19.387966248
  0
LINE
  5
40A
330
A
100
AcDbEntity
  8
50
  6
SOLID
 62
     7
100
AcDbLine
 10
1700.0983511
 20
1187.276756613
 30
0.0
 11
1706.169961532
 21
1185.650295373
 31
0.0
  0
LINE
  5
40B
330
A
100
AcDbEntity
  8
50
  6
SOLID
 62
     7
100
AcDbLine
 10
1698.902917133
 20
1182.815336315
 30
0.0
 11
1704.974816802
 21
1181.188797594
 31
0.0
  0
ARC
  5
40C
330
A
100
AcDbEntity
  8
50
  6
SOLID
 62
     7
100
AcDbCircle
 10
1702.312600052
 20
1184.292840806
 30
0.0
 40
4.089315873
100
AcDbArc
 50
310.619462654
 51
19.387966248
  0
ARC
  5
40D
330
A
100
AcDbEntity
  8
50
  6
SOLID
 62
     7
100
AcDbCircle
 10
1693.290478136
 20
1193.882163277
 30
0.0
 40
15.285466596
100
AcDbArc
 50
327.415758361
 51
2.591670541
  0
LINE
  5
40E
330
A
100
AcDbEntity
  8
50
  6
SOLID
 62
     7
100
AcDbLine
 10
1706.262585493
 20
1183.234656893
 30
0.0
 11
1709.848019616
 21
1196.619149982
 31
0.0
  0
LINE
  5
40F
330
A
100
AcDbEntity
  8
50
  6
CENTER
 62
     7
100
AcDbLine
 10
1703.99837154
 20
1191.013568247
 30
0.0
 11
1709.272417961
 21
1189.600758223
 31
0.0
  0
DIMENSION
  5
420
330
A
100
AcDbEntity
  8
1
  6
SOLID
 62
     3
100
AcDbDimension
280
     0
  2
*D17
 10
2371.084472656
 20
749.9487915039999
 30
0.0
 11
2356.084472656
 21
808.958007813
 31
0.0
  1
  330    (360)
 71
     5
 42
0.0
 73
     0
 74
     0
 75
     0
  3
15
100
AcDbAlignedDimension
 13
1771.442626953
 23
1089.948730469
 33
0.0
 14
1976.442871094
 24
749.9487915039999
 34
0.0
 50
90.0
100
AcDbRotatedDimension
  0
DIMENSION
  5
430
330
A
100
AcDbEntity
  8
1
  6
SOLID
 62
     3
100
AcDbDimension
280
     0
  2
*D18
 10
2371.084472656
 20
1089.948730469
 30
0.0
 11
2356.084472656
 21
1256.242431641
 31
0.0
  1
  405   
 71
     5
 42
0.0
 73
     0
 74
     0
 75
     0
  3
16
100
AcDbAlignedDimension
 13
1827.576660156
 23
1493.026977539
 33
0.0
 14
1771.442626953
 24
1089.948730469
 34
0.0
 50
90.0
100
AcDbRotatedDimension
  0
DIMENSION
  5
440
330
A
100
AcDbEntity
  8
1
  6
SOLID
 62
     3
100
AcDbDimension
280
     0
  2
*D19
 10
2467.183105469
 20
749.9487915039999
 30
0.0
 11
2452.183105469
 21
1086.242553711
 31
0.0
  1
  735   
 71
     5
 42
0.0
 73
     0
 74
     0
 75
     0
  3
17
100
AcDbAlignedDimension
 13
1827.576660156
 23
1493.026977539
 33
0.0
 14
1976.442871094
 24
749.9487915039999
 34
0.0
 50
90.0
100
AcDbRotatedDimension
  0
LINE
  5
441
330
A
100
AcDbEntity
  8
1
  6
SOLID
 62
     7
100
AcDbLine
 10
1765.921411456
 20
1433.972064826
 30
0.0
 11
1763.305918068
 21
1434.672884168
 31
0.0
  0
ARC
  5
442
330
A
100
AcDbEntity
  8
1
  6
L_DASH
 62
     7
100
AcDbCircle
 10
1694.697005056
 20
1178.708513014
 30
0.0
 40
5.0
100
AcDbArc
 50
74.740433686
 51
165.0
  0
LINE
  5
443
330
A
100
AcDbEntity
  8
1
  6
SOLID
 62
     7
100
AcDbLine
 10
1765.921413078
 20
1433.972010939
 30
0.0
 11
1763.023635692
 21
1434.74846842
 31
0.0
  0
LINE
  5
444
330
A
100
AcDbEntity
  8
1
  6
SOLID
 62
     7
100
AcDbLine
 10
1767.852334339
 20
1433.45090058
 30
0.0
 11
1765.920482748
 21
1433.968538901
 31
0.0
  0
LINE
  5
445
330
A
100
AcDbEntity
  8
1
  6
L_DASH
 62
     7
100
AcDbLine
 10
1698.628459837
 20
1182.831410329
 30
0.0
 11
1687.520247092
 21
1185.807848384
 31
0.0
  0
LINE
  5
446
330
A
100
AcDbEntity
  8
1
  6
L_DASH
 62
     7
100
AcDbLine
 10
1767.993617189
 20
1440.664020436
 30
0.0
 11
1697.853565452
 21
1178.897908658
 31
0.0
  0
ARC
  5
447
330
A
100
AcDbEntity
  8
1
  6
SOLID
 62
     7
100
AcDbCircle
 10
1541.442857181
 20
1224.948775498
 30
0.0
 40
300.0
100
AcDbArc
 50
321.926876677
 51
45.44008819
  0
ARC
  5
448
330
A
100
AcDbEntity
  8
1
  6
SOLID
 62
     7
100
AcDbCircle
 10
1541.442857181
 20
1224.948775498
 30
0.0
 40
300.0
100
AcDbArc
 50
45.44008819
 51
216.484727632
  0
ARC
  5
449
330
A
100
AcDbEntity
  8
1
  6
SOLID
 62
     7
100
AcDbCircle
 10
1541.442857181
 20
1224.948775498
 30
0.0
 40
300.0
100
AcDbArc
 50
216.484727632
 51
323.515273176
  0
LINE
  5
44A
330
A
100
AcDbEntity
  8
2
  6
SOLID
 62
     3
100
AcDbLine
 10
1405.810547664
 20
618.8568164419999
 30
0.0
 11
1425.810547664
 21
618.8568164419999
 31
0.0
  0
LINE
  5
44B
330
A
100
AcDbEntity
  8
2
  6
SOLID
 62
     3
100
AcDbLine
 10
1415.810547664
 20
618.8568164419999
 30
0.0
 11
1415.810547664
 21
628.8568164419999
 31
0.0
  0
LINE
  5
44C
330
A
100
AcDbEntity
  8
2
  6
SOLID
 62
     3
100
AcDbLine
 10
1415.810547664
 20
608.8568164419999
 30
0.0
 11
1415.810547664
 21
628.8568164419999
 31
0.0
  0
LINE
  5
44D
330
A
100
AcDbEntity
  8
2
  6
SOLID
 62
     3
100
AcDbLine
 10
1408.739479852
 20
611.7857486299999
 30
0.0
 11
1422.881615476
 21
625.9278842539999
 31
0.0
  0
LINE
  5
44E
330
A
100
AcDbEntity
  8
2
  6
SOLID
 62
     3
100
AcDbLine
 10
1415.810547664
 20
618.8568164419999
 30
0.0
 11
1408.739479852
 21
625.9278842539999
 31
0.0
  0
LINE
  5
44F
330
A
100
AcDbEntity
  8
2
  6
SOLID
 62
     3
100
AcDbLine
 10
1422.881615476
 20
611.7857486299999
 30
0.0
 11
1408.739479852
 21
625.9278842539999
 31
0.0
  0
LINE
  5
450
330
A
100
AcDbEntity
  8
2
  6
SOLID
 62
     3
100
AcDbLine
 10
1208.07305244
 20
1729.081016897
 30
0.0
 11
1183.873051391
 21
1729.081016897
 31
0.0
  0
LINE
  5
451
330
A
100
AcDbEntity
  8
2
  6
SOLID
 62
     3
100
AcDbLine
 10
1204.529044339
 20
1720.525024474
 30
0.0
 11
1187.417059492
 21
1737.63700932
 31
0.0
  0
LINE
  5
452
330
A
100
AcDbEntity
  8
2
  6
SOLID
 62
     3
100
AcDbLine
 10
1195.973051915
 20
1729.081016897
 30
0.0
 11
1187.417059492
 21
1720.525024474
 31
0.0
  0
LINE
  5
453
330
A
100
AcDbEntity
  8
2
  6
SOLID
 62
     3
100
AcDbLine
 10
1204.529044339
 20
1737.63700932
 30
0.0
 11
1187.417059492
 21
1720.525024474
 31
0.0
  0
LINE
  5
454
330
A
100
AcDbEntity
  8
2
  6
SOLID
 62
     3
100
AcDbLine
 10
1180.433416092
 20
1702.89954985
 30
0.0
 11
2161.971480371
 21
1702.89954985
 31
0.0
  0
ENDSEC
  0
SECTION
  2
OBJECTS
  0
DICTIONARY
  5
19
330
0
100
AcDbDictionary
281
     1
  3
ACAD_COLOR
350
482
  3
ACAD_GROUP
350
1A
  3
ACAD_LAYOUT
350
1E
  3
ACAD_MATERIAL
350
458
  3
ACAD_MLEADERSTYLE
350
497
  3
ACAD_MLINESTYLE
350
1B
  3
ACAD_PLOTSETTINGS
350
22
  3
ACAD_PLOTSTYLENAME
350
1F
  3
ACAD_SCALELIST
350
485
  3
ACAD_TABLESTYLE
350
483
  3
ACAD_VISUALSTYLE
350
471
  3
ACDB_RECOMPOSE_DATA
350
514
  3
AcDbVariableDictionary
350
49E
  0
DICTIONARY
  5
4AD
330
14
100
AcDbDictionary
280
     1
281
     1
  3
ADSK_XREC_LAYER_RECONCILED
360
4AE
  0
DICTIONARY
  5
4AF
330
23
100
AcDbDictionary
280
     1
281
     1
  3
ADSK_XREC_LAYER_RECONCILED
360
4B0
  0
DICTIONARY
  5
4B1
330
24
100
AcDbDictionary
280
     1
281
     1
  3
ADSK_XREC_LAYER_RECONCILED
360
4B2
  0
DICTIONARY
  5
4B3
330
25
100
AcDbDictionary
280
     1
281
     1
  3
ADSK_XREC_LAYER_RECONCILED
360
4B4
  0
DICTIONARY
  5
4B5
330
26
100
AcDbDictionary
280
     1
281
     1
  3
ADSK_XREC_LAYER_RECONCILED
360
4B6
  0
DICTIONARY
  5
4B7
330
27
100
AcDbDictionary
280
     1
281
     1
  3
ADSK_XREC_LAYER_RECONCILED
360
4B8
  0
DICTIONARY
  5
4B9
330
28
100
AcDbDictionary
280
     1
281
     1
  3
ADSK_XREC_LAYER_RECONCILED
360
4BA
  0
DICTIONARY
  5
4BB
330
29
100
AcDbDictionary
280
     1
281
     1
  3
ADSK_XREC_LAYER_RECONCILED
360
4BC
  0
DICTIONARY
  5
4BD
330
2A
100
AcDbDictionary
280
     1
281
     1
  3
ADSK_XREC_LAYER_RECONCILED
360
4BE
  0
DICTIONARY
  5
4BF
330
2B
100
AcDbDictionary
280
     1
281
     1
  3
ADSK_XREC_LAYER_RECONCILED
360
4C0
  0
DICTIONARY
  5
4C1
330
2C
100
AcDbDictionary
280
     1
281
     1
  3
ADSK_XREC_LAYER_RECONCILED
360
4C2
  0
DICTIONARY
  5
4C3
330
2D
100
AcDbDictionary
280
     1
281
     1
  3
ADSK_XREC_LAYER_RECONCILED
360
4C4
  0
DICTIONARY
  5
4C5
330
2E
100
AcDbDictionary
280
     1
281
     1
  3
ADSK_XREC_LAYER_RECONCILED
360
4C6
  0
DICTIONARY
  5
4C7
330
2F
100
AcDbDictionary
280
     1
281
     1
  3
ADSK_XREC_LAYER_RECONCILED
360
4C8
  0
DICTIONARY
  5
4C9
330
30
100
AcDbDictionary
280
     1
281
     1
  3
ADSK_XREC_LAYER_RECONCILED
360
4CA
  0
DICTIONARY
  5
4CB
330
31
100
AcDbDictionary
280
     1
281
     1
  3
ADSK_XREC_LAYER_RECONCILED
360
4CC
  0
DICTIONARY
  5
4CD
330
32
100
AcDbDictionary
280
     1
281
     1
  3
ADSK_XREC_LAYER_RECONCILED
360
4CE
  0
DICTIONARY
  5
4CF
330
33
100
AcDbDictionary
280
     1
281
     1
  3
ADSK_XREC_LAYER_RECONCILED
360
4D0
  0
DICTIONARY
  5
4D1
330
34
100
AcDbDictionary
280
     1
281
     1
  3
ADSK_XREC_LAYER_RECONCILED
360
4D2
  0
DICTIONARY
  5
4D3
330
35
100
AcDbDictionary
280
     1
281
     1
  3
ADSK_XREC_LAYER_RECONCILED
360
4D4
  0
DICTIONARY
  5
4D5
330
36
100
AcDbDictionary
280
     1
281
     1
  3
ADSK_XREC_LAYER_RECONCILED
360
4D6
  0
DICTIONARY
  5
4D7
330
37
100
AcDbDictionary
280
     1
281
     1
  3
ADSK_XREC_LAYER_RECONCILED
360
4D8
  0
DICTIONARY
  5
4D9
330
38
100
AcDbDictionary
280
     1
281
     1
  3
ADSK_XREC_LAYER_RECONCILED
360
4DA
  0
DICTIONARY
  5
4DB
330
39
100
AcDbDictionary
280
     1
281
     1
  3
ADSK_XREC_LAYER_RECONCILED
360
4DC
  0
DICTIONARY
  5
4DD
330
3A
100
AcDbDictionary
280
     1
281
     1
  3
ADSK_XREC_LAYER_RECONCILED
360
4DE
  0
DICTIONARY
  5
4DF
330
3B
100
AcDbDictionary
280
     1
281
     1
  3
ADSK_XREC_LAYER_RECONCILED
360
4E0
  0
DICTIONARY
  5
4E1
330
3C
100
AcDbDictionary
280
     1
281
     1
  3
ADSK_XREC_LAYER_RECONCILED
360
4E2
  0
DICTIONARY
  5
4E3
330
3D
100
AcDbDictionary
280
     1
281
     1
  3
ADSK_XREC_LAYER_RECONCILED
360
4E4
  0
DICTIONARY
  5
4E5
330
3E
100
AcDbDictionary
280
     1
281
     1
  3
ADSK_XREC_LAYER_RECONCILED
360
4E6
  0
DICTIONARY
  5
4E7
330
3F
100
AcDbDictionary
280
     1
281
     1
  3
ADSK_XREC_LAYER_RECONCILED
360
4E8
  0
DICTIONARY
  5
4E9
330
40
100
AcDbDictionary
280
     1
281
     1
  3
ADSK_XREC_LAYER_RECONCILED
360
4EA
  0
DICTIONARY
  5
4EB
330
41
100
AcDbDictionary
280
     1
281
     1
  3
ADSK_XREC_LAYER_RECONCILED
360
4EC
  0
DICTIONARY
  5
4ED
330
42
100
AcDbDictionary
280
     1
281
     1
  3
ADSK_XREC_LAYER_RECONCILED
360
4EE
  0
DICTIONARY
  5
4EF
330
43
100
AcDbDictionary
280
     1
281
     1
  3
ADSK_XREC_LAYER_RECONCILED
360
4F0
  0
DICTIONARY
  5
4F1
330
44
100
AcDbDictionary
280
     1
281
     1
  3
ADSK_XREC_LAYER_RECONCILED
360
4F2
  0
DICTIONARY
  5
4F3
330
45
100
AcDbDictionary
280
     1
281
     1
  3
ADSK_XREC_LAYER_RECONCILED
360
4F4
  0
DICTIONARY
  5
4F5
330
46
100
AcDbDictionary
280
     1
281
     1
  3
ADSK_XREC_LAYER_RECONCILED
360
4F6
  0
DICTIONARY
  5
4F7
330
47
100
AcDbDictionary
280
     1
281
     1
  3
ADSK_XREC_LAYER_RECONCILED
360
4F8
  0
DICTIONARY
  5
4F9
330
48
100
AcDbDictionary
280
     1
281
     1
  3
ADSK_XREC_LAYER_RECONCILED
360
4FA
  0
DICTIONARY
  5
4FB
330
49
100
AcDbDictionary
280
     1
281
     1
  3
ADSK_XREC_LAYER_RECONCILED
360
4FC
  0
DICTIONARY
  5
4FD
330
4A
100
AcDbDictionary
280
     1
281
     1
  3
ADSK_XREC_LAYER_RECONCILED
360
4FE
  0
DICTIONARY
  5
4FF
330
4B
100
AcDbDictionary
280
     1
281
     1
  3
ADSK_XREC_LAYER_RECONCILED
360
500
  0
DICTIONARY
  5
501
330
4C
100
AcDbDictionary
280
     1
281
     1
  3
ADSK_XREC_LAYER_RECONCILED
360
502
  0
DICTIONARY
  5
503
330
4D
100
AcDbDictionary
280
     1
281
     1
  3
ADSK_XREC_LAYER_RECONCILED
360
504
  0
DICTIONARY
  5
505
330
4E
100
AcDbDictionary
280
     1
281
     1
  3
ADSK_XREC_LAYER_RECONCILED
360
506
  0
DICTIONARY
  5
507
330
4F
100
AcDbDictionary
280
     1
281
     1
  3
ADSK_XREC_LAYER_RECONCILED
360
508
  0
DICTIONARY
  5
509
330
50
100
AcDbDictionary
280
     1
281
     1
  3
ADSK_XREC_LAYER_RECONCILED
360
50A
  0
DICTIONARY
  5
50B
330
51
100
AcDbDictionary
280
     1
281
     1
  3
ADSK_XREC_LAYER_RECONCILED
360
50C
  0
DICTIONARY
  5
50D
330
52
100
AcDbDictionary
280
     1
281
     1
  3
ADSK_XREC_LAYER_RECONCILED
360
50E
  0
DICTIONARY
  5
50F
330
53
100
AcDbDictionary
280
     1
281
     1
  3
ADSK_XREC_LAYER_RECONCILED
360
510
  0
DICTIONARY
  5
511
330
54
100
AcDbDictionary
280
     1
281
     1
  3
ADSK_XREC_LAYER_RECONCILED
360
512
  0
DICTIONARY
  5
482
102
{ACAD_REACTORS
330
19
102
}
330
19
100
AcDbDictionary
281
     1
  0
DICTIONARY
  5
1A
102
{ACAD_REACTORS
330
19
102
}
330
19
100
AcDbDictionary
281
     1
  0
DICTIONARY
  5
1E
102
{ACAD_REACTORS
330
19
102
}
330
19
100
AcDbDictionary
281
     1
  3
Layout1
350
21
  3
Model
350
20
  0
DICTIONARY
  5
458
102
{ACAD_REACTORS
330
19
102
}
330
19
100
AcDbDictionary
281
     1
  3
ByBlock
350
461
  3
ByLayer
350
459
  3
Global
350
469
  0
DICTIONARY
  5
497
102
{ACAD_REACTORS
330
19
102
}
330
19
100
AcDbDictionary
281
     1
  3
Standard
350
498
  0
DICTIONARY
  5
1B
102
{ACAD_REACTORS
330
19
102
}
330
19
100
AcDbDictionary
281
     1
  3
Standard
350
1C
  0
DICTIONARY
  5
22
102
{ACAD_REACTORS
330
19
102
}
330
19
100
AcDbDictionary
281
     1
  0
ACDBDICTIONARYWDFLT
  5
1F
102
{ACAD_REACTORS
330
19
102
}
330
19
100
AcDbDictionary
281
     1
  3
Normal
350
1D
100
AcDbDictionaryWithDefault
340
1D
  0
DICTIONARY
  5
485
102
{ACAD_REACTORS
330
19
102
}
330
19
100
AcDbDictionary
281
     1
  3
A0
350
486
  3
A1
350
487
  3
A2
350
488
  3
A3
350
489
  3
A4
350
48A
  3
A5
350
48B
  3
A6
350
48C
  3
A7
350
48D
  3
A8
350
48E
  3
A9
350
48F
  3
B0
350
490
  3
B1
350
491
  3
B2
350
492
  3
B3
350
493
  3
B4
350
494
  3
B5
350
495
  3
B6
350
496
  0
DICTIONARY
  5
483
102
{ACAD_REACTORS
330
19
102
}
330
19
100
AcDbDictionary
281
     1
  3
Standard
350
484
  0
DICTIONARY
  5
471
102
{ACAD_REACTORS
330
19
102
}
330
19
100
AcDbDictionary
281
     1
  3
2dWireframe
350
477
  3
3D Hidden
350
479
  3
3dWireframe
350
478
  3
Basic
350
476
  3
Brighten
350
47D
  3
ColorChange
350
481
  3
Conceptual
350
47A
  3
Dim
350
47C
  3
EdgeColorOff
350
4A9
  3
Facepattern
350
480
  3
Flat
350
472
  3
FlatWithEdges
350
473
  3
Gouraud
350
474
  3
GouraudWithEdges
350
475
  3
JitterOff
350
4A7
  3
Linepattern
350
47F
  3
OverhangOff
350
4A8
  3
Realistic
350
47B
  3
Thicken
350
47E
  0
XRECORD
  5
514
102
{ACAD_REACTORS
330
19
102
}
330
19
100
AcDbXrecord
280
     1
 90
        1
330
484
  0
DICTIONARY
  5
49E
102
{ACAD_REACTORS
330
19
102
}
330
19
100
AcDbDictionary
281
     1
  3
CANNOSCALE
350
4A2
  3
CMLEADERSTYLE
350
4A0
  3
CTABLESTYLE
350
49F
  3
LAYEREVAL
350
4A4
  3
LAYERNOTIFY
350
4A5
  3
LIGHTINGUNITS
350
4A3
  3
MSLTSCALE
350
4A1
  0
XRECORD
  5
4AE
102
{ACAD_REACTORS
330
4AD
102
}
330
4AD
100
AcDbXrecord
280
     1
290
     1
  0
XRECORD
  5
4B0
102
{ACAD_REACTORS
330
4AF
102
}
330
4AF
100
AcDbXrecord
280
     1
290
     1
  0
XRECORD
  5
4B2
102
{ACAD_REACTORS
330
4B1
102
}
330
4B1
100
AcDbXrecord
280
     1
290
     1
  0
XRECORD
  5
4B4
102
{ACAD_REACTORS
330
4B3
102
}
330
4B3
100
AcDbXrecord
280
     1
290
     1
  0
XRECORD
  5
4B6
102
{ACAD_REACTORS
330
4B5
102
}
330
4B5
100
AcDbXrecord
280
     1
290
     1
  0
XRECORD
  5
4B8
102
{ACAD_REACTORS
330
4B7
102
}
330
4B7
100
AcDbXrecord
280
     1
290
     1
  0
XRECORD
  5
4BA
102
{ACAD_REACTORS
330
4B9
102
}
330
4B9
100
AcDbXrecord
280
     1
290
     1
  0
XRECORD
  5
4BC
102
{ACAD_REACTORS
330
4BB
102
}
330
4BB
100
AcDbXrecord
280
     1
290
     1
  0
XRECORD
  5
4BE
102
{ACAD_REACTORS
330
4BD
102
}
330
4BD
100
AcDbXrecord
280
     1
290
     1
  0
XRECORD
  5
4C0
102
{ACAD_REACTORS
330
4BF
102
}
330
4BF
100
AcDbXrecord
280
     1
290
     1
  0
XRECORD
  5
4C2
102
{ACAD_REACTORS
330
4C1
102
}
330
4C1
100
AcDbXrecord
280
     1
290
     1
  0
XRECORD
  5
4C4
102
{ACAD_REACTORS
330
4C3
102
}
330
4C3
100
AcDbXrecord
280
     1
290
     1
  0
XRECORD
  5
4C6
102
{ACAD_REACTORS
330
4C5
102
}
330
4C5
100
AcDbXrecord
280
     1
290
     1
  0
XRECORD
  5
4C8
102
{ACAD_REACTORS
330
4C7
102
}
330
4C7
100
AcDbXrecord
280
     1
290
     1
  0
XRECORD
  5
4CA
102
{ACAD_REACTORS
330
4C9
102
}
330
4C9
100
AcDbXrecord
280
     1
290
     1
  0
XRECORD
  5
4CC
102
{ACAD_REACTORS
330
4CB
102
}
330
4CB
100
AcDbXrecord
280
     1
290
     1
  0
XRECORD
  5
4CE
102
{ACAD_REACTORS
330
4CD
102
}
330
4CD
100
AcDbXrecord
280
     1
290
     1
  0
XRECORD
  5
4D0
102
{ACAD_REACTORS
330
4CF
102
}
330
4CF
100
AcDbXrecord
280
     1
290
     1
  0
XRECORD
  5
4D2
102
{ACAD_REACTORS
330
4D1
102
}
330
4D1
100
AcDbXrecord
280
     1
290
     1
  0
XRECORD
  5
4D4
102
{ACAD_REACTORS
330
4D3
102
}
330
4D3
100
AcDbXrecord
280
     1
290
     1
  0
XRECORD
  5
4D6
102
{ACAD_REACTORS
330
4D5
102
}
330
4D5
100
AcDbXrecord
280
     1
290
     1
  0
XRECORD
  5
4D8
102
{ACAD_REACTORS
330
4D7
102
}
330
4D7
100
AcDbXrecord
280
     1
290
     1
  0
XRECORD
  5
4DA
102
{ACAD_REACTORS
330
4D9
102
}
330
4D9
100
AcDbXrecord
280
     1
290
     1
  0
XRECORD
  5
4DC
102
{ACAD_REACTORS
330
4DB
102
}
330
4DB
100
AcDbXrecord
280
     1
290
     1
  0
XRECORD
  5
4DE
102
{ACAD_REACTORS
330
4DD
102
}
330
4DD
100
AcDbXrecord
280
     1
290
     1
  0
XRECORD
  5
4E0
102
{ACAD_REACTORS
330
4DF
102
}
330
4DF
100
AcDbXrecord
280
     1
290
     1
  0
XRECORD
  5
4E2
102
{ACAD_REACTORS
330
4E1
102
}
330
4E1
100
AcDbXrecord
280
     1
290
     1
  0
XRECORD
  5
4E4
102
{ACAD_REACTORS
330
4E3
102
}
330
4E3
100
AcDbXrecord
280
     1
290
     1
  0
XRECORD
  5
4E6
102
{ACAD_REACTORS
330
4E5
102
}
330
4E5
100
AcDbXrecord
280
     1
290
     1
  0
XRECORD
  5
4E8
102
{ACAD_REACTORS
330
4E7
102
}
330
4E7
100
AcDbXrecord
280
     1
290
     1
  0
XRECORD
  5
4EA
102
{ACAD_REACTORS
330
4E9
102
}
330
4E9
100
AcDbXrecord
280
     1
290
     1
  0
XRECORD
  5
4EC
102
{ACAD_REACTORS
330
4EB
102
}
330
4EB
100
AcDbXrecord
280
     1
290
     1
  0
XRECORD
  5
4EE
102
{ACAD_REACTORS
330
4ED
102
}
330
4ED
100
AcDbXrecord
280
     1
290
     1
  0
XRECORD
  5
4F0
102
{ACAD_REACTORS
330
4EF
102
}
330
4EF
100
AcDbXrecord
280
     1
290
     1
  0
XRECORD
  5
4F2
102
{ACAD_REACTORS
330
4F1
102
}
330
4F1
100
AcDbXrecord
280
     1
290
     1
  0
XRECORD
  5
4F4
102
{ACAD_REACTORS
330
4F3
102
}
330
4F3
100
AcDbXrecord
280
     1
290
     1
  0
XRECORD
  5
4F6
102
{ACAD_REACTORS
330
4F5
102
}
330
4F5
100
AcDbXrecord
280
     1
290
     1
  0
XRECORD
  5
4F8
102
{ACAD_REACTORS
330
4F7
102
}
330
4F7
100
AcDbXrecord
280
     1
290
     1
  0
XRECORD
  5
4FA
102
{ACAD_REACTORS
330
4F9
102
}
330
4F9
100
AcDbXrecord
280
     1
290
     1
  0
XRECORD
  5
4FC
102
{ACAD_REACTORS
330
4FB
102
}
330
4FB
100
AcDbXrecord
280
     1
290
     1
  0
XRECORD
  5
4FE
102
{ACAD_REACTORS
330
4FD
102
}
330
4FD
100
AcDbXrecord
280
     1
290
     1
  0
XRECORD
  5
500
102
{ACAD_REACTORS
330
4FF
102
}
330
4FF
100
AcDbXrecord
280
     1
290
     1
  0
XRECORD
  5
502
102
{ACAD_REACTORS
330
501
102
}
330
501
100
AcDbXrecord
280
     1
290
     1
  0
XRECORD
  5
504
102
{ACAD_REACTORS
330
503
102
}
330
503
100
AcDbXrecord
280
     1
290
     1
  0
XRECORD
  5
506
102
{ACAD_REACTORS
330
505
102
}
330
505
100
AcDbXrecord
280
     1
290
     1
  0
XRECORD
  5
508
102
{ACAD_REACTORS
330
507
102
}
330
507
100
AcDbXrecord
280
     1
290
     1
  0
XRECORD
  5
50A
102
{ACAD_REACTORS
330
509
102
}
330
509
100
AcDbXrecord
280
     1
290
     1
  0
XRECORD
  5
50C
102
{ACAD_REACTORS
330
50B
102
}
330
50B
100
AcDbXrecord
280
     1
290
     1
  0
XRECORD
  5
50E
102
{ACAD_REACTORS
330
50D
102
}
330
50D
100
AcDbXrecord
280
     1
290
     1
  0
XRECORD
  5
510
102
{ACAD_REACTORS
330
50F
102
}
330
50F
100
AcDbXrecord
280
     1
290
     1
  0
XRECORD
  5
512
102
{ACAD_REACTORS
330
511
102
}
330
511
100
AcDbXrecord
280
     1
290
     1
  0
LAYOUT
  5
21
102
{ACAD_REACTORS
330
1E
102
}
330
1E
100
AcDbPlotSettings
  1

  2

  4

  6

 40
0.0
 41
0.0
 42
0.0
 43
0.0
 44
0.0
 45
0.0
 46
0.0
 47
0.0
 48
0.0
 49
0.0
140
0.0
141
0.0
142
1.0
143
1.0
 70
     0
 72
     0
 73
     0
 74
     0
  7

 75
     0
147
1.0
 76
     0
 77
     2
 78
   300
148
0.0
149
0.0
100
AcDbLayout
  1
Layout1
 70
     0
 71
     1
 10
0.0
 20
0.0
 11
12.0
 21
9.0
 12
0.0
 22
0.0
 32
0.0
 14
1.000000000000000E+20
 24
1.000000000000000E+20
 34
1.000000000000000E+20
 15
-1.000000000000000E+20
 25
-1.000000000000000E+20
 35
-1.000000000000000E+20
146
0.0
 13
0.0
 23
0.0
 33
0.0
 16
1.0
 26
0.0
 36
0.0
 17
0.0
 27
1.0
 37
0.0
 76
     0
330
B
  0
LAYOUT
  5
20
102
{ACAD_REACTORS
330
1E
102
}
330
1E
100
AcDbPlotSettings
  1

  2

  4

  6

 40
0.0
 41
0.0
 42
0.0
 43
0.0
 44
0.0
 45
0.0
 46
0.0
 47
0.0
 48
0.0
 49
0.0
140
0.0
141
0.0
142
1.0
143
1.0
 70
  1024
 72
     0
 73
     0
 74
     0
  7

 75
     0
147
1.0
 76
     0
 77
     2
 78
   300
148
0.0
149
0.0
100
AcDbLayout
  1
Model
 70
     0
 71
     0
 10
0.0
 20
0.0
 11
0.0
 21
0.0
 12
0.0
 22
0.0
 32
0.0
 14
0.0
 24
0.0
 34
0.0
 15
0.0
 25
0.0
 35
0.0
146
0.0
 13
0.0
 23
0.0
 33
0.0
 16
0.0
 26
0.0
 36
0.0
 17
0.0
 27
0.0
 37
0.0
 76
     0
330
A
331
15
  0
MATERIAL
  5
461
102
{ACAD_XDICTIONARY
360
462
102
}
102
{ACAD_REACTORS
330
458
102
}
330
458
100
AcDbMaterial
  1
ByBlock
 72
     0
 43
0.0208333333333333
 43
0.0
 43
0.0
 43
0.0
 43
0.0
 43
0.0208333333333333
 43
0.0
 43
0.0
 43
0.0
 43
0.0
 43
1.0
 43
0.0
 43
0.0
 43
0.0
 43
0.0
 43
1.0
 77
     0
 47
0.0208333333333333
 47
0.0
 47
0.0
 47
0.0
 47
0.0
 47
0.0208333333333333
 47
0.0
 47
0.0
 47
0.0
 47
0.0
 47
1.0
 47
0.0
 47
0.0
 47
0.0
 47
0.0
 47
1.0
171
     0
 49
0.0208333333333333
 49
0.0
 49
0.0
 49
0.0
 49
0.0
 49
0.0208333333333333
 49
0.0
 49
0.0
 49
0.0
 49
0.0
 49
1.0
 49
0.0
 49
0.0
 49
0.0
 49
0.0
 49
1.0
175
     0
142
0.0208333333333333
142
0.0
142
0.0
142
0.0
142
0.0
142
0.0208333333333333
142
0.0
142
0.0
142
0.0
142
0.0
142
1.0
142
0.0
142
0.0
142
0.0
142
0.0
142
1.0
179
     0
144
0.0208333333333333
144
0.0
144
0.0
144
0.0
144
0.0
144
0.0208333333333333
144
0.0
144
0.0
144
0.0
144
0.0
144
1.0
144
0.0
144
0.0
144
0.0
144
0.0
144
1.0
147
0.0208333333333333
147
0.0
147
0.0
147
0.0
147
0.0
147
0.0208333333333333
147
0.0
147
0.0
147
0.0
147
0.0
147
1.0
147
0.0
147
0.0
147
0.0
147
0.0
147
1.0
  0
MATERIAL
  5
459
102
{ACAD_XDICTIONARY
360
45A
102
}
102
{ACAD_REACTORS
330
458
102
}
330
458
100
AcDbMaterial
  1
ByLayer
 72
     0
 43
0.0208333333333333
 43
0.0
 43
0.0
 43
0.0
 43
0.0
 43
0.0208333333333333
 43
0.0
 43
0.0
 43
0.0
 43
0.0
 43
1.0
 43
0.0
 43
0.0
 43
0.0
 43
0.0
 43
1.0
 77
     0
 47
0.0208333333333333
 47
0.0
 47
0.0
 47
0.0
 47
0.0
 47
0.0208333333333333
 47
0.0
 47
0.0
 47
0.0
 47
0.0
 47
1.0
 47
0.0
 47
0.0
 47
0.0
 47
0.0
 47
1.0
171
     0
 49
0.0208333333333333
 49
0.0
 49
0.0
 49
0.0
 49
0.0
 49
0.0208333333333333
 49
0.0
 49
0.0
 49
0.0
 49
0.0
 49
1.0
 49
0.0
 49
0.0
 49
0.0
 49
0.0
 49
1.0
175
     0
142
0.0208333333333333
142
0.0
142
0.0
142
0.0
142
0.0
142
0.0208333333333333
142
0.0
142
0.0
142
0.0
142
0.0
142
1.0
142
0.0
142
0.0
142
0.0
142
0.0
142
1.0
179
     0
144
0.0208333333333333
144
0.0
144
0.0
144
0.0
144
0.0
144
0.0208333333333333
144
0.0
144
0.0
144
0.0
144
0.0
144
1.0
144
0.0
144
0.0
144
0.0
144
0.0
144
1.0
147
0.0208333333333333
147
0.0
147
0.0
147
0.0
147
0.0
147
0.0208333333333333
147
0.0
147
0.0
147
0.0
147
0.0
147
1.0
147
0.0
147
0.0
147
0.0
147
0.0
147
1.0
  0
MATERIAL
  5
469
102
{ACAD_XDICTIONARY
360
46A
102
}
102
{ACAD_REACTORS
330
458
102
}
330
458
100
AcDbMaterial
  1
Global
 72
     0
 43
0.0208333333333333
 43
0.0
 43
0.0
 43
0.0
 43
0.0
 43
0.0208333333333333
 43
0.0
 43
0.0
 43
0.0
 43
0.0
 43
1.0
 43
0.0
 43
0.0
 43
0.0
 43
0.0
 43
1.0
 77
     0
 47
0.0208333333333333
 47
0.0
 47
0.0
 47
0.0
 47
0.0
 47
0.0208333333333333
 47
0.0
 47
0.0
 47
0.0
 47
0.0
 47
1.0
 47
0.0
 47
0.0
 47
0.0
 47
0.0
 47
1.0
171
     0
 49
0.0208333333333333
 49
0.0
 49
0.0
 49
0.0
 49
0.0
 49
0.0208333333333333
 49
0.0
 49
0.0
 49
0.0
 49
0.0
 49
1.0
 49
0.0
 49
0.0
 49
0.0
 49
0.0
 49
1.0
175
     0
142
0.0208333333333333
142
0.0
142
0.0
142
0.0
142
0.0
142
0.0208333333333333
142
0.0
142
0.0
142
0.0
142
0.0
142
1.0
142
0.0
142
0.0
142
0.0
142
0.0
142
1.0
179
     0
144
0.0208333333333333
144
0.0
144
0.0
144
0.0
144
0.0
144
0.0208333333333333
144
0.0
144
0.0
144
0.0
144
0.0
144
1.0
144
0.0
144
0.0
144
0.0
144
0.0
144
1.0
147
0.0208333333333333
147
0.0
147
0.0
147
0.0
147
0.0
147
0.0208333333333333
147
0.0
147
0.0
147
0.0
147
0.0
147
1.0
147
0.0
147
0.0
147
0.0
147
0.0
147
1.0
  0
MLEADERSTYLE
  5
498
102
{ACAD_REACTORS
330
497
102
}
330
497
100
AcDbMLeaderStyle
179
     2
170
     2
171
     1
172
     0
 90
        2
 40
0.0
 41
0.0
173
     1
 91
-1056964608
340
11
 92
       -2
290
     1
 42
2.0
291
     1
 43
0.36
  3
Standard
 44
4.0
300

342
17
174
     1
178
     6
175
     1
176
     0
 93
-1056964608
 45
4.0
292
     0
297
     0
 46
4.0
 94
-1056964608
 47
1.0
 49
1.0
140
1.0
293
     1
141
0.0
294
     1
177
     0
142
1.0
295
     0
296
     0
143
0.125
271
     0
272
     9
273
     9
  0
MLINESTYLE
  5
1C
102
{ACAD_REACTORS
330
1B
102
}
330
1B
100
AcDbMlineStyle
  2
STANDARD
 70
     0
  3

 62
     0
 51
90.0
 52
90.0
 71
     2
 49
0.5
 62
   256
  6
BYLAYER
 49
-0.5
 62
   256
  6
BYLAYER
  0
ACDBPLACEHOLDER
  5
1D
102
{ACAD_REACTORS
330
1F
102
}
330
1F
  0
SCALE
  5
486
102
{ACAD_REACTORS
330
485
102
}
330
485
100
AcDbScale
 70
     0
300
1:1
140
1.0
141
1.0
290
     1
  0
SCALE
  5
487
102
{ACAD_REACTORS
330
485
102
}
330
485
100
AcDbScale
 70
     0
300
1:2
140
1.0
141
2.0
290
     0
  0
SCALE
  5
488
102
{ACAD_REACTORS
330
485
102
}
330
485
100
AcDbScale
 70
     0
300
1:4
140
1.0
141
4.0
290
     0
  0
SCALE
  5
489
102
{ACAD_REACTORS
330
485
102
}
330
485
100
AcDbScale
 70
     0
300
1:5
140
1.0
141
5.0
290
     0
  0
SCALE
  5
48A
102
{ACAD_REACTORS
330
485
102
}
330
485
100
AcDbScale
 70
     0
300
1:8
140
1.0
141
8.0
290
     0
  0
SCALE
  5
48B
102
{ACAD_REACTORS
330
485
102
}
330
485
100
AcDbScale
 70
     0
300
1:10
140
1.0
141
10.0
290
     0
  0
SCALE
  5
48C
102
{ACAD_REACTORS
330
485
102
}
330
485
100
AcDbScale
 70
     0
300
1:16
140
1.0
141
16.0
290
     0
  0
SCALE
  5
48D
102
{ACAD_REACTORS
330
485
102
}
330
485
100
AcDbScale
 70
     0
300
1:20
140
1.0
141
20.0
290
     0
  0
SCALE
  5
48E
102
{ACAD_REACTORS
330
485
102
}
330
485
100
AcDbScale
 70
     0
300
1:30
140
1.0
141
30.0
290
     0
  0
SCALE
  5
48F
102
{ACAD_REACTORS
330
485
102
}
330
485
100
AcDbScale
 70
     0
300
1:40
140
1.0
141
40.0
290
     0
  0
SCALE
  5
490
102
{ACAD_REACTORS
330
485
102
}
330
485
100
AcDbScale
 70
     0
300
1:50
140
1.0
141
50.0
290
     0
  0
SCALE
  5
491
102
{ACAD_REACTORS
330
485
102
}
330
485
100
AcDbScale
 70
     0
300
1:100
140
1.0
141
100.0
290
     0
  0
SCALE
  5
492
102
{ACAD_REACTORS
330
485
102
}
330
485
100
AcDbScale
 70
     0
300
2:1
140
2.0
141
1.0
290
     0
  0
SCALE
  5
493
102
{ACAD_REACTORS
330
485
102
}
330
485
100
AcDbScale
 70
     0
300
4:1
140
4.0
141
1.0
290
     0
  0
SCALE
  5
494
102
{ACAD_REACTORS
330
485
102
}
330
485
100
AcDbScale
 70
     0
300
8:1
140
8.0
141
1.0
290
     0
  0
SCALE
  5
495
102
{ACAD_REACTORS
330
485
102
}
330
485
100
AcDbScale
 70
     0
300
10:1
140
10.0
141
1.0
290
     0
  0
SCALE
  5
496
102
{ACAD_REACTORS
330
485
102
}
330
485
100
AcDbScale
 70
     0
300
100:1
140
100.0
141
1.0
290
     0
  0
TABLESTYLE
  5
484
102
{ACAD_XDICTIONARY
360
49B
102
}
102
{ACAD_REACTORS
330
483
102
}
330
483
100
AcDbTableStyle
280
     0
  3
Standard
 70
     0
 71
     0
 40
1.5
 41
1.5
280
     0
281
     0
  7
Standard
140
4.5
170
     2
 62
     0
 63
     7
283
     0
 90
      512
 91
        0
  1

274
    -2
284
     1
 64
     0
275
    -2
285
     1
 65
     0
276
    -2
286
     1
 66
     0
277
    -2
287
     1
 67
     0
278
    -2
288
     1
 68
     0
279
    -2
289
     1
 69
     0
  7
Standard
140
6.0
170
     5
 62
     0
 63
     7
283
     0
 90
      512
 91
        0
  1

274
    -2
284
     1
 64
     0
275
    -2
285
     1
 65
     0
276
    -2
286
     1
 66
     0
277
    -2
287
     1
 67
     0
278
    -2
288
     1
 68
     0
279
    -2
289
     1
 69
     0
  7
Standard
140
4.5
170
     5
 62
     0
 63
     7
283
     0
 90
      512
 91
        0
  1

274
    -2
284
     1
 64
     0
275
    -2
285
     1
 65
     0
276
    -2
286
     1
 66
     0
277
    -2
287
     1
 67
     0
278
    -2
288
     1
 68
     0
279
    -2
289
     1
 69
     0
  0
VISUALSTYLE
  5
477
102
{ACAD_REACTORS
330
471
102
}
330
471
100
AcDbVisualStyle
  2
2dWireframe
 70
     4
177
     2
291
     0
 71
     0
176
     1
 72
     2
176
     1
 73
     0
176
     1
 90
        0
176
     1
 40
0.6
176
     1
 41
30.0
176
     1
 63
     7
421
 16777215
176
     1
 74
     1
176
     1
 91
        4
176
     1
 64
     7
176
     1
 65
   257
176
     1
 75
     1
176
     1
175
     1
176
     1
 42
1.0
176
     1
 92
        0
176
     1
 66
   257
176
     1
 43
1.0
176
     1
 76
     1
176
     1
 77
     6
176
     1
 78
     2
176
     1
 67
     7
176
     1
 79
     5
176
     1
170
     0
176
     1
171
     0
176
     1
290
     0
176
     1
 93
        1
176
     1
 44
0.0
176
     1
173
     0
176
     1
  0
VISUALSTYLE
  5
479
102
{ACAD_REACTORS
330
471
102
}
330
471
100
AcDbVisualStyle
  2
3D Hidden
 70
     6
177
     2
291
     0
 71
     1
176
     1
 72
     2
176
     1
 73
     2
176
     1
 90
        0
176
     1
 40
0.6
176
     1
 41
30.0
176
     1
 63
     7
421
 16777215
176
     1
 74
     2
176
     1
 91
        2
176
     1
 64
     7
176
     1
 65
   257
176
     1
 75
     2
176
     1
175
     1
176
     1
 42
40.0
176
     1
 92
        0
176
     1
 66
   257
176
     1
 43
1.0
176
     1
 76
     1
176
     1
 77
     6
176
     1
 78
     2
176
     1
 67
     7
176
     1
 79
     3
176
     1
170
     0
176
     1
171
     0
176
     1
290
     0
176
     1
 93
        1
176
     1
 44
0.0
176
     1
173
     0
176
     1
  0
VISUALSTYLE
  5
478
102
{ACAD_REACTORS
330
471
102
}
330
471
100
AcDbVisualStyle
  2
3dWireframe
 70
     5
177
     2
291
     0
 71
     0
176
     1
 72
     2
176
     1
 73
     0
176
     1
 90
        0
176
     1
 40
0.6
176
     1
 41
30.0
176
     1
 63
     7
421
 16777215
176
     1
 74
     1
176
     1
 91
        4
176
     1
 64
     7
176
     1
 65
   257
176
     1
 75
     1
176
     1
175
     1
176
     1
 42
1.0
176
     1
 92
        0
176
     1
 66
   257
176
     1
 43
1.0
176
     1
 76
     1
176
     1
 77
     6
176
     1
 78
     2
176
     1
 67
     7
176
     1
 79
     5
176
     1
170
     0
176
     1
171
     0
176
     1
290
     0
176
     1
 93
        1
176
     1
 44
0.0
176
     1
173
     0
176
     1
  0
VISUALSTYLE
  5
476
102
{ACAD_REACTORS
330
471
102
}
330
471
100
AcDbVisualStyle
  2
Basic
 70
     7
177
     2
291
     1
 71
     1
176
     1
 72
     0
176
     1
 73
     1
176
     1
 90
        0
176
     1
 40
0.6
176
     1
 41
30.0
176
     1
 63
     7
421
 16777215
176
     1
 74
     0
176
     1
 91
        4
176
     1
 64
     7
176
     1
 65
   257
176
     1
 75
     1
176
     1
175
     1
176
     1
 42
1.0
176
     1
 92
        8
176
     1
 66
     7
176
     1
 43
1.0
176
     1
 76
     1
176
     1
 77
     6
176
     1
 78
     2
176
     1
 67
     7
176
     1
 79
     5
176
     1
170
     0
176
     1
171
     0
176
     1
290
     0
176
     1
 93
        1
176
     1
 44
0.0
176
     1
173
     0
176
     1
  0
VISUALSTYLE
  5
47D
102
{ACAD_REACTORS
330
471
102
}
330
471
100
AcDbVisualStyle
  2
Brighten
 70
    12
177
     2
291
     1
 71
     2
176
     1
 72
     2
176
     1
 73
     0
176
     1
 90
        0
176
     1
 40
0.6
176
     1
 41
30.0
176
     1
 63
     7
421
 16777215
176
     1
 74
     1
176
     1
 91
        4
176
     1
 64
     7
176
     1
 65
   257
176
     1
 75
     1
176
     1
175
     1
176
     1
 42
1.0
176
     1
 92
        8
176
     1
 66
     7
176
     1
 43
1.0
176
     1
 76
     1
176
     1
 77
     6
176
     1
 78
     2
176
     1
 67
     7
176
     1
 79
     5
176
     1
170
     0
176
     1
171
     0
176
     1
290
     0
176
     1
 93
        1
176
     1
 44
50.0
176
     1
173
     0
176
     1
  0
VISUALSTYLE
  5
481
102
{ACAD_REACTORS
330
471
102
}
330
471
100
AcDbVisualStyle
  2
ColorChange
 70
    16
177
     2
291
     1
 71
     2
176
     1
 72
     2
176
     1
 73
     3
176
     1
 90
        0
176
     1
 40
0.6
176
     1
 41
30.0
176
     1
 63
     8
421
  8421504
176
     1
 74
     1
176
     1
 91
        4
176
     1
 64
     7
176
     1
 65
   257
176
     1
 75
     1
176
     1
175
     1
176
     1
 42
1.0
176
     1
 92
        8
176
     1
 66
     8
424
  8421504
176
     1
 43
1.0
176
     1
 76
     1
176
     1
 77
     6
176
     1
 78
     2
176
     1
 67
     7
176
     1
 79
     5
176
     1
170
     0
176
     1
171
     0
176
     1
290
     0
176
     1
 93
        1
176
     1
 44
0.0
176
     1
173
     0
176
     1
  0
VISUALSTYLE
  5
47A
102
{ACAD_REACTORS
330
471
102
}
330
471
100
AcDbVisualStyle
  2
Conceptual
 70
     9
177
     2
291
     0
 71
     3
176
     1
 72
     2
176
     1
 73
     0
176
     1
 90
        0
176
     1
 40
0.6
176
     1
 41
30.0
176
     1
 63
     7
421
 16777215
176
     1
 74
     2
176
     1
 91
        2
176
     1
 64
     7
176
     1
 65
   257
176
     1
 75
     1
176
     1
175
     1
176
     1
 42
40.0
176
     1
 92
        8
176
     1
 66
     7
176
     1
 43
1.0
176
     1
 76
     1
176
     1
 77
     6
176
     1
 78
     2
176
     1
 67
     7
176
     1
 79
     3
176
     1
170
     0
176
     1
171
     0
176
     1
290
     0
176
     1
 93
        1
176
     1
 44
0.0
176
     1
173
     0
176
     1
  0
VISUALSTYLE
  5
47C
102
{ACAD_REACTORS
330
471
102
}
330
471
100
AcDbVisualStyle
  2
Dim
 70
    11
177
     2
291
     1
 71
     2
176
     1
 72
     2
176
     1
 73
     0
176
     1
 90
        0
176
     1
 40
0.6
176
     1
 41
30.0
176
     1
 63
     7
421
 16777215
176
     1
 74
     1
176
     1
 91
        4
176
     1
 64
     7
176
     1
 65
   257
176
     1
 75
     1
176
     1
175
     1
176
     1
 42
1.0
176
     1
 92
        8
176
     1
 66
     7
176
     1
 43
1.0
176
     1
 76
     1
176
     1
 77
     6
176
     1
 78
     2
176
     1
 67
     7
176
     1
 79
     5
176
     1
170
     0
176
     1
171
     0
176
     1
290
     0
176
     1
 93
        1
176
     1
 44
-50.0
176
     1
173
     0
176
     1
  0
VISUALSTYLE
  5
4A9
102
{ACAD_REACTORS
330
471
102
}
330
471
100
AcDbVisualStyle
  2
EdgeColorOff
 70
    22
177
     2
291
     1
 71
     2
176
     0
 72
     2
176
     0
 73
     0
176
     0
 90
        0
176
     0
 40
0.6
176
     0
 41
30.0
176
     0
 63
     7
421
 16777215
176
     0
 74
     1
176
     0
 91
        4
176
     0
 64
     7
176
     0
 65
   257
176
     0
 75
     1
176
     0
175
     1
176
     0
 42
1.0
176
     0
 92
        8
176
     2
 66
     7
176
     0
 43
1.0
176
     0
 76
     1
176
     0
 77
     6
176
     0
 78
     2
176
     0
 67
     7
176
     0
 79
     5
176
     0
170
     0
176
     0
171
     0
176
     0
290
     0
176
     0
 93
        1
176
     0
 44
0.0
176
     0
173
     0
176
     0
  0
VISUALSTYLE
  5
480
102
{ACAD_REACTORS
330
471
102
}
330
471
100
AcDbVisualStyle
  2
Facepattern
 70
    15
177
     2
291
     1
 71
     2
176
     1
 72
     2
176
     1
 73
     0
176
     1
 90
        0
176
     1
 40
0.6
176
     1
 41
30.0
176
     1
 63
     7
421
 16777215
176
     1
 74
     1
176
     1
 91
        4
176
     1
 64
     7
176
     1
 65
   257
176
     1
 75
     1
176
     1
175
     1
176
     1
 42
1.0
176
     1
 92
        8
176
     1
 66
     7
176
     1
 43
1.0
176
     1
 76
     1
176
     1
 77
     6
176
     1
 78
     2
176
     1
 67
     7
176
     1
 79
     5
176
     1
170
     0
176
     1
171
     0
176
     1
290
     0
176
     1
 93
        1
176
     1
 44
0.0
176
     1
173
     0
176
     1
  0
VISUALSTYLE
  5
472
102
{ACAD_REACTORS
330
471
102
}
330
471
100
AcDbVisualStyle
  2
Flat
 70
     0
177
     2
291
     1
 71
     2
176
     1
 72
     1
176
     1
 73
     1
176
     1
 90
        2
176
     1
 40
0.6
176
     1
 41
30.0
176
     1
 63
     7
421
 16777215
176
     1
 74
     0
176
     1
 91
        4
176
     1
 64
     7
176
     1
 65
   257
176
     1
 75
     1
176
     1
175
     1
176
     1
 42
1.0
176
     1
 92
        8
176
     1
 66
     7
176
     1
 43
1.0
176
     1
 76
     1
176
     1
 77
     6
176
     1
 78
     2
176
     1
 67
     7
176
     1
 79
     5
176
     1
170
     0
176
     1
171
     0
176
     1
290
     0
176
     1
 93
       13
176
     1
 44
0.0
176
     1
173
     0
176
     1
  0
VISUALSTYLE
  5
473
102
{ACAD_REACTORS
330
471
102
}
330
471
100
AcDbVisualStyle
  2
FlatWithEdges
 70
     1
177
     2
291
     1
 71
     2
176
     1
 72
     1
176
     1
 73
     1
176
     1
 90
        2
176
     1
 40
0.6
176
     1
 41
30.0
176
     1
 63
     7
421
 16777215
176
     1
 74
     1
176
     1
 91
        4
176
     1
 64
     7
176
     1
 65
   257
176
     1
 75
     1
176
     1
175
     1
176
     1
 42
1.0
176
     1
 92
        0
176
     1
 66
   257
176
     1
 43
1.0
176
     1
 76
     1
176
     1
 77
     6
176
     1
 78
     2
176
     1
 67
     7
176
     1
 79
     5
176
     1
170
     0
176
     1
171
     0
176
     1
290
     0
176
     1
 93
       13
176
     1
 44
0.0
176
     1
173
     0
176
     1
  0
VISUALSTYLE
  5
474
102
{ACAD_REACTORS
330
471
102
}
330
471
100
AcDbVisualStyle
  2
Gouraud
 70
     2
177
     2
291
     1
 71
     2
176
     1
 72
     2
176
     1
 73
     1
176
     1
 90
        2
176
     1
 40
0.6
176
     1
 41
30.0
176
     1
 63
     7
421
 16777215
176
     1
 74
     0
176
     1
 91
        4
176
     1
 64
     7
176
     1
 65
   257
176
     1
 75
     1
176
     1
175
     1
176
     1
 42
1.0
176
     1
 92
        0
176
     1
 66
     7
176
     1
 43
1.0
176
     1
 76
     1
176
     1
 77
     6
176
     1
 78
     2
176
     1
 67
     7
176
     1
 79
     5
176
     1
170
     0
176
     1
171
     0
176
     1
290
     0
176
     1
 93
       13
176
     1
 44
0.0
176
     1
173
     0
176
     1
  0
VISUALSTYLE
  5
475
102
{ACAD_REACTORS
330
471
102
}
330
471
100
AcDbVisualStyle
  2
GouraudWithEdges
 70
     3
177
     2
291
     1
 71
     2
176
     1
 72
     2
176
     1
 73
     1
176
     1
 90
        2
176
     1
 40
0.6
176
     1
 41
30.0
176
     1
 63
     7
421
 16777215
176
     1
 74
     1
176
     1
 91
        4
176
     1
 64
     7
176
     1
 65
   257
176
     1
 75
     1
176
     1
175
     1
176
     1
 42
1.0
176
     1
 92
        0
176
     1
 66
   257
176
     1
 43
1.0
176
     1
 76
     1
176
     1
 77
     6
176
     1
 78
     2
176
     1
 67
     7
176
     1
 79
     5
176
     1
170
     0
176
     1
171
     0
176
     1
290
     0
176
     1
 93
       13
176
     1
 44
0.0
176
     1
173
     0
176
     1
  0
VISUALSTYLE
  5
4A7
102
{ACAD_REACTORS
330
471
102
}
330
471
100
AcDbVisualStyle
  2
JitterOff
 70
    20
177
     2
291
     1
 71
     2
176
     0
 72
     2
176
     0
 73
     0
176
     0
 90
        0
176
     0
 40
0.6
176
     0
 41
30.0
176
     0
 63
     7
421
 16777215
176
     0
 74
     1
176
     0
 91
        4
176
     0
 64
     7
176
     0
 65
   257
176
     0
 75
     1
176
     0
175
     1
176
     0
 42
1.0
176
     0
 92
       10
176
     2
 66
     7
176
     0
 43
1.0
176
     0
 76
     1
176
     0
 77
     6
176
     0
 78
     2
176
     0
 67
     7
176
     0
 79
     5
176
     0
170
     0
176
     0
171
     0
176
     0
290
     0
176
     0
 93
        1
176
     0
 44
0.0
176
     0
173
     0
176
     0
  0
VISUALSTYLE
  5
47F
102
{ACAD_REACTORS
330
471
102
}
330
471
100
AcDbVisualStyle
  2
Linepattern
 70
    14
177
     2
291
     1
 71
     2
176
     1
 72
     2
176
     1
 73
     0
176
     1
 90
        0
176
     1
 40
0.6
176
     1
 41
30.0
176
     1
 63
     7
421
 16777215
176
     1
 74
     1
176
     1
 91
        4
176
     1
 64
     7
176
     1
 65
   257
176
     1
 75
     7
176
     1
175
     7
176
     1
 42
1.0
176
     1
 92
        8
176
     1
 66
     7
176
     1
 43
1.0
176
     1
 76
     1
176
     1
 77
     6
176
     1
 78
     2
176
     1
 67
     7
176
     1
 79
     5
176
     1
170
     0
176
     1
171
     0
176
     1
290
     0
176
     1
 93
        1
176
     1
 44
0.0
176
     1
173
     0
176
     1
  0
VISUALSTYLE
  5
4A8
102
{ACAD_REACTORS
330
471
102
}
330
471
100
AcDbVisualStyle
  2
OverhangOff
 70
    21
177
     2
291
     1
 71
     2
176
     0
 72
     2
176
     0
 73
     0
176
     0
 90
        0
176
     0
 40
0.6
176
     0
 41
30.0
176
     0
 63
     7
421
 16777215
176
     0
 74
     1
176
     0
 91
        4
176
     0
 64
     7
176
     0
 65
   257
176
     0
 75
     1
176
     0
175
     1
176
     0
 42
1.0
176
     0
 92
        9
176
     2
 66
     7
176
     0
 43
1.0
176
     0
 76
     1
176
     0
 77
     6
176
     0
 78
     2
176
     0
 67
     7
176
     0
 79
     5
176
     0
170
     0
176
     0
171
     0
176
     0
290
     0
176
     0
 93
        1
176
     0
 44
0.0
176
     0
173
     0
176
     0
  0
VISUALSTYLE
  5
47B
102
{ACAD_REACTORS
330
471
102
}
330
471
100
AcDbVisualStyle
  2
Realistic
 70
     8
177
     2
291
     0
 71
     2
176
     1
 72
     2
176
     1
 73
     0
176
     1
 90
        0
176
     1
 40
0.6
176
     1
 41
30.0
176
     1
 63
     7
421
 16777215
176
     1
 74
     1
176
     1
 91
        0
176
     1
 64
     7
176
     1
 65
   257
176
     1
 75
     1
176
     1
175
     1
176
     1
 42
1.0
176
     1
 92
        8
176
     1
 66
     8
424
  7895160
176
     1
 43
1.0
176
     1
 76
     1
176
     1
 77
     6
176
     1
 78
     2
176
     1
 67
     7
176
     1
 79
     5
176
     1
170
     0
176
     1
171
     0
176
     1
290
     0
176
     1
 93
       13
176
     1
 44
0.0
176
     1
173
     0
176
     1
  0
VISUALSTYLE
  5
47E
102
{ACAD_REACTORS
330
471
102
}
330
471
100
AcDbVisualStyle
  2
Thicken
 70
    13
177
     2
291
     1
 71
     2
176
     1
 72
     2
176
     1
 73
     0
176
     1
 90
        0
176
     1
 40
0.6
176
     1
 41
30.0
176
     1
 63
     7
421
 16777215
176
     1
 74
     1
176
     1
 91
        4
176
     1
 64
     7
176
     1
 65
   257
176
     1
 75
     1
176
     1
175
     1
176
     1
 42
1.0
176
     1
 92
       12
176
     1
 66
     7
176
     1
 43
1.0
176
     1
 76
     1
176
     1
 77
     6
176
     1
 78
     2
176
     1
 67
     7
176
     1
 79
     5
176
     1
170
     0
176
     1
171
     0
176
     1
290
     0
176
     1
 93
        1
176
     1
 44
0.0
176
     1
173
     0
176
     1
  0
DICTIONARYVAR
  5
4A2
102
{ACAD_REACTORS
330
49E
102
}
330
49E
100
DictionaryVariables
280
     0
  1
1:1
  0
DICTIONARYVAR
  5
4A0
102
{ACAD_REACTORS
330
49E
102
}
330
49E
100
DictionaryVariables
280
     0
  1
STANDARD
  0
DICTIONARYVAR
  5
49F
102
{ACAD_REACTORS
330
49E
102
}
330
49E
100
DictionaryVariables
280
     0
  1
STANDARD
  0
DICTIONARYVAR
  5
4A4
102
{ACAD_REACTORS
330
49E
102
}
330
49E
100
DictionaryVariables
280
     0
  1
1
  0
DICTIONARYVAR
  5
4A5
102
{ACAD_REACTORS
330
49E
102
}
330
49E
100
DictionaryVariables
280
     0
  1
15
  0
DICTIONARYVAR
  5
4A3
102
{ACAD_REACTORS
330
49E
102
}
330
49E
100
DictionaryVariables
280
     0
  1
0
  0
DICTIONARYVAR
  5
4A1
102
{ACAD_REACTORS
330
49E
102
}
330
49E
100
DictionaryVariables
280
     0
  1
0
  0
DICTIONARY
  5
462
330
461
100
AcDbDictionary
280
     1
281
     1
  3
BUMPTILE
360
464
  3
DIFFUSETILE
360
463
  3
OPACITYTILE
360
467
  3
REFLECTIONTILE
360
466
  3
REFRACTIONTILE
360
468
  3
SPECULARTILE
360
465
  0
DICTIONARY
  5
45A
330
459
100
AcDbDictionary
280
     1
281
     1
  3
BUMPTILE
360
45C
  3
DIFFUSETILE
360
45B
  3
OPACITYTILE
360
45F
  3
REFLECTIONTILE
360
45E
  3
REFRACTIONTILE
360
460
  3
SPECULARTILE
360
45D
  0
DICTIONARY
  5
46A
330
469
100
AcDbDictionary
280
     1
281
     1
  3
BUMPTILE
360
46C
  3
DIFFUSETILE
360
46B
  3
OPACITYTILE
360
46F
  3
REFLECTIONTILE
360
46E
  3
REFRACTIONTILE
360
470
  3
SPECULARTILE
360
46D
  0
DICTIONARY
  5
49B
330
484
100
AcDbDictionary
280
     1
281
     1
  3
ACAD_ROUNDTRIP_2008_TABLESTYLE_CELLSTYLEMAP
360
513
  0
XRECORD
  5
464
102
{ACAD_REACTORS
330
462
102
}
330
462
100
AcDbXrecord
280
     1
270
     1
271
     1
  0
XRECORD
  5
463
102
{ACAD_REACTORS
330
462
102
}
330
462
100
AcDbXrecord
280
     1
270
     1
271
     1
  0
XRECORD
  5
467
102
{ACAD_REACTORS
330
462
102
}
330
462
100
AcDbXrecord
280
     1
270
     1
271
     1
  0
XRECORD
  5
466
102
{ACAD_REACTORS
330
462
102
}
330
462
100
AcDbXrecord
280
     1
270
     1
271
     1
  0
XRECORD
  5
468
102
{ACAD_REACTORS
330
462
102
}
330
462
100
AcDbXrecord
280
     1
270
     1
271
     1
  0
XRECORD
  5
465
102
{ACAD_REACTORS
330
462
102
}
330
462
100
AcDbXrecord
280
     1
270
     1
271
     1
  0
XRECORD
  5
45C
102
{ACAD_REACTORS
330
45A
102
}
330
45A
100
AcDbXrecord
280
     1
270
     1
271
     1
  0
XRECORD
  5
45B
102
{ACAD_REACTORS
330
45A
102
}
330
45A
100
AcDbXrecord
280
     1
270
     1
271
     1
  0
XRECORD
  5
45F
102
{ACAD_REACTORS
330
45A
102
}
330
45A
100
AcDbXrecord
280
     1
270
     1
271
     1
  0
XRECORD
  5
45E
102
{ACAD_REACTORS
330
45A
102
}
330
45A
100
AcDbXrecord
280
     1
270
     1
271
     1
  0
XRECORD
  5
460
102
{ACAD_REACTORS
330
45A
102
}
330
45A
100
AcDbXrecord
280
     1
270
     1
271
     1
  0
XRECORD
  5
45D
102
{ACAD_REACTORS
330
45A
102
}
330
45A
100
AcDbXrecord
280
     1
270
     1
271
     1
  0
XRECORD
  5
46C
102
{ACAD_REACTORS
330
46A
102
}
330
46A
100
AcDbXrecord
280
     1
270
     1
271
     1
  0
XRECORD
  5
46B
102
{ACAD_REACTORS
330
46A
102
}
330
46A
100
AcDbXrecord
280
     1
270
     1
271
     1
  0
XRECORD
  5
46F
102
{ACAD_REACTORS
330
46A
102
}
330
46A
100
AcDbXrecord
280
     1
270
     1
271
     1
  0
XRECORD
  5
46E
102
{ACAD_REACTORS
330
46A
102
}
330
46A
100
AcDbXrecord
280
     1
270
     1
271
     1
  0
XRECORD
  5
470
102
{ACAD_REACTORS
330
46A
102
}
330
46A
100
AcDbXrecord
280
     1
270
     1
271
     1
  0
XRECORD
  5
46D
102
{ACAD_REACTORS
330
46A
102
}
330
46A
100
AcDbXrecord
280
     1
270
     1
271
     1
  0
CELLSTYLEMAP
  5
513
102
{ACAD_REACTORS
330
49B
102
}
330
49B
100
AcDbCellStyleMap
 90
        3
300
CELLSTYLE
  1
TABLEFORMAT_BEGIN
 90
        5
170
     1
 91
        0
 92
    32768
 62
   257
 93
        1
300
CONTENTFORMAT
  1
CONTENTFORMAT_BEGIN
 90
        0
 91
        0
 92
      512
 93
        0
300

 40
0.0
140
1.0
 94
        5
 62
     0
340
17
144
6.0
309
CONTENTFORMAT_END
171
     1
301
MARGIN
  1
CELLMARGIN_BEGIN
 40
1.5
 40
1.5
 40
1.5
 40
1.5
 40
4.5
 40
4.5
309
CELLMARGIN_END
 94
        6
 95
        1
302
GRIDFORMAT
  1
GRIDFORMAT_BEGIN
 90
        0
 91
        1
 62
     0
 92
       -2
340
0
 93
        0
 40
1.125
309
GRIDFORMAT_END
 95
        2
302
GRIDFORMAT
  1
GRIDFORMAT_BEGIN
 90
        0
 91
        1
 62
     0
 92
       -2
340
0
 93
        0
 40
1.125
309
GRIDFORMAT_END
 95
        4
302
GRIDFORMAT
  1
GRIDFORMAT_BEGIN
 90
        0
 91
        1
 62
     0
 92
       -2
340
0
 93
        0
 40
1.125
309
GRIDFORMAT_END
 95
        8
302
GRIDFORMAT
  1
GRIDFORMAT_BEGIN
 90
        0
 91
        1
 62
     0
 92
       -2
340
0
 93
        0
 40
1.125
309
GRIDFORMAT_END
 95
       16
302
GRIDFORMAT
  1
GRIDFORMAT_BEGIN
 90
        0
 91
        1
 62
     0
 92
       -2
340
0
 93
        0
 40
1.125
309
GRIDFORMAT_END
 95
       32
302
GRIDFORMAT
  1
GRIDFORMAT_BEGIN
 90
        0
 91
        1
 62
     0
 92
       -2
340
0
 93
        0
 40
1.125
309
GRIDFORMAT_END
309
TABLEFORMAT_END
  1
CELLSTYLE_BEGIN
 90
        1
 91
        1
300
_TITLE
309
CELLSTYLE_END
300
CELLSTYLE
  1
TABLEFORMAT_BEGIN
 90
        5
170
     1
 91
        0
 92
        0
 62
   257
 93
        1
300
CONTENTFORMAT
  1
CONTENTFORMAT_BEGIN
 90
        0
 91
        0
 92
      512
 93
        0
300

 40
0.0
140
1.0
 94
        5
 62
     0
340
17
144
4.5
309
CONTENTFORMAT_END
171
     1
301
MARGIN
  1
CELLMARGIN_BEGIN
 40
1.5
 40
1.5
 40
1.5
 40
1.5
 40
4.5
 40
4.5
309
CELLMARGIN_END
 94
        6
 95
        1
302
GRIDFORMAT
  1
GRIDFORMAT_BEGIN
 90
        0
 91
        1
 62
     0
 92
       -2
340
0
 93
        0
 40
1.125
309
GRIDFORMAT_END
 95
        2
302
GRIDFORMAT
  1
GRIDFORMAT_BEGIN
 90
        0
 91
        1
 62
     0
 92
       -2
340
0
 93
        0
 40
1.125
309
GRIDFORMAT_END
 95
        4
302
GRIDFORMAT
  1
GRIDFORMAT_BEGIN
 90
        0
 91
        1
 62
     0
 92
       -2
340
0
 93
        0
 40
1.125
309
GRIDFORMAT_END
 95
        8
302
GRIDFORMAT
  1
GRIDFORMAT_BEGIN
 90
        0
 91
        1
 62
     0
 92
       -2
340
0
 93
        0
 40
1.125
309
GRIDFORMAT_END
 95
       16
302
GRIDFORMAT
  1
GRIDFORMAT_BEGIN
 90
        0
 91
        1
 62
     0
 92
       -2
340
0
 93
        0
 40
1.125
309
GRIDFORMAT_END
 95
       32
302
GRIDFORMAT
  1
GRIDFORMAT_BEGIN
 90
        0
 91
        1
 62
     0
 92
       -2
340
0
 93
        0
 40
1.125
309
GRIDFORMAT_END
309
TABLEFORMAT_END
  1
CELLSTYLE_BEGIN
 90
        2
 91
        1
300
_HEADER
309
CELLSTYLE_END
300
CELLSTYLE
  1
TABLEFORMAT_BEGIN
 90
        5
170
     1
 91
        0
 92
        0
 62
   257
 93
        1
300
CONTENTFORMAT
  1
CONTENTFORMAT_BEGIN
 90
        0
 91
        0
 92
      512
 93
        0
300

 40
0.0
140
1.0
 94
        2
 62
     0
340
17
144
4.5
309
CONTENTFORMAT_END
171
     1
301
MARGIN
  1
CELLMARGIN_BEGIN
 40
1.5
 40
1.5
 40
1.5
 40
1.5
 40
4.5
 40
4.5
309
CELLMARGIN_END
 94
        6
 95
        1
302
GRIDFORMAT
  1
GRIDFORMAT_BEGIN
 90
        0
 91
        1
 62
     0
 92
       -2
340
0
 93
        0
 40
1.125
309
GRIDFORMAT_END
 95
        2
302
GRIDFORMAT
  1
GRIDFORMAT_BEGIN
 90
        0
 91
        1
 62
     0
 92
       -2
340
0
 93
        0
 40
1.125
309
GRIDFORMAT_END
 95
        4
302
GRIDFORMAT
  1
GRIDFORMAT_BEGIN
 90
        0
 91
        1
 62
     0
 92
       -2
340
0
 93
        0
 40
1.125
309
GRIDFORMAT_END
 95
        8
302
GRIDFORMAT
  1
GRIDFORMAT_BEGIN
 90
        0
 91
        1
 62
     0
 92
       -2
340
0
 93
        0
 40
1.125
309
GRIDFORMAT_END
 95
       16
302
GRIDFORMAT
  1
GRIDFORMAT_BEGIN
 90
        0
 91
        1
 62
     0
 92
       -2
340
0
 93
        0
 40
1.125
309
GRIDFORMAT_END
 95
       32
302
GRIDFORMAT
  1
GRIDFORMAT_BEGIN
 90
        0
 91
        1
 62
     0
 92
       -2
340
0
 93
        0
 40
1.125
309
GRIDFORMAT_END
309
TABLEFORMAT_END
  1
CELLSTYLE_BEGIN
 90
        3
 91
        2
300
_DATA
309
CELLSTYLE_END
  0
ENDSEC
  0
EOF
